<?xml version="1.0" standalone="no"?>
<!DOCTYPE svg PUBLIC "-//W3C//DTD SVG 1.1//EN" "http://www.w3.org/Graphics/SVG/1.1/DTD/svg11.dtd" >
<svg xmlns="http://www.w3.org/2000/svg">
<metadata></metadata>
<defs>
<font id="festivo_letters_no1regular" horiz-adv-x="948" >
<font-face units-per-em="2048" ascent="1536" descent="-512" />
<missing-glyph horiz-adv-x="716" />
<glyph horiz-adv-x="2048" />
<glyph horiz-adv-x="2048" />
<glyph unicode="&#xd;" horiz-adv-x="2048" />
<glyph unicode=" "  horiz-adv-x="716" />
<glyph unicode="&#x09;" horiz-adv-x="716" />
<glyph unicode="&#xa0;" horiz-adv-x="716" />
<glyph unicode="!" horiz-adv-x="493" d="M129 1368q-1 7 4 27t4 32q-6 6 0 21q9 0 48.5 3t58.5 3h50.5t63.5 -4q4 -14 4 -36.5t-2 -51t-2 -41.5q4 -28 4 -43q0 -16 -1 -43t-1 -43q0 -59 -6 -90q8 -70 -2 -172q-3 -25 -3 -55.5t1.5 -67t1.5 -55.5v-43q0 -7 -1 -21.5t-1 -21.5q0 -3 1 -7.5t1 -7.5q0 -7 -2 -21.5 t-2 -21.5q-6 -75 -2 -209q-12 -11 -14 -4l-1 -3q-1 -4 -5 -5q-38 -4 -158 0q-3 5 -14 16l-9 232q-3 44 -3 124.5t-1 98.5v68q-4 34 -1.5 109t1.5 100l-4 92q1 3 -2.5 5t-3.5 5q-1 17 2.5 58.5t-0.5 56.5q0 3 -2 8t-2 8zM350 236l15 -13q-2 -25 1.5 -113.5t-4.5 -115.5 q-22 2 -30.5 2t-29.5 -2.5t-30 -3.5q-13 -1 -35 0.5t-30 1.5q-43 0 -66 2q-3 3 -4 9t-4 7q-5 20 -0.5 109t4.5 112q13 0 15 2l4 5q55 -14 194 -2z" />
<glyph unicode="&#x22;" horiz-adv-x="600" d="M66 1434q77 13 194 4q0 -44 -6 -88q-9 -55 -6 -152q0 -38 -4 -115t-4 -110q-3 -3 -5.5 -8.5t-5.5 -8.5q-94 -4 -141 -4q-3 3 -5 6q-2 4 -5 5q-7 63 -7.5 196t-7.5 199q-3 52 3 76zM524 967q0 -3 -4.5 -5.5t-5.5 -5.5q-70 9 -145 0q-4 6 -5 11.5t0 14t1 11.5 q-2 38 -8.5 137.5t-9.5 167.5t-3 127h12q1 2 -0.5 6.5t2.5 6.5q11 0 42.5 2t50 2.5t43.5 -1t43 -7.5q-15 -336 -13 -447q1 -4 -2 -5l-2 -1q4 1 5 -4t-1 -10z" />
<glyph unicode="#" horiz-adv-x="1157" d="M276 463l-116 -4q-25 0 -35 10q0 104 2 143q3 3 7.5 4.5t4.5 4.5q30 3 85.5 3t68.5 1q17 118 24 200q-3 -5 -36.5 -2.5t-34.5 2.5q-4 0 -37 -0.5t-39 4.5l4 121q0 7 3 19.5t3 19.5q24 -1 85 0.5t77 1.5q25 129 39 250l4 15v-1v21q0 2 6 20q1 8 1 25t1 25q1 2 3.5 6.5 t2.5 7.5q13 50 13 80q22 4 71 3.5t72 2.5q4 -1 6 -8l2 -6q-8 -46 -18.5 -143.5t-18.5 -143.5q2 -9 2 -12.5t-2.5 -10.5t-3.5 -10q-2 -14 -4 -54t-8 -59q18 -4 94 -2.5t101 0.5q4 52 12.5 111t21 137.5t17.5 116.5l10 80q99 17 162 6q9 -15 6 -29q0 -37 -11.5 -103t-13.5 -95 q-18 -174 -28 -224q21 -1 48 -1t56.5 0.5t38.5 0.5q0 -3 1.5 -3.5t3.5 0t5 -0.5v-18q-6 -17 0 -17q0 -13 -2 -35.5t-2 -41.5t4 -37q-3 -3 -2 -7.5t-2 -7.5q-16 -11 -81 -7.5t-81 1.5q-17 -75 -30 -198q86 -4 133 -2q3 -3 9.5 -3.5t10.5 -3.5q1 -14 -1.5 -64.5t1.5 -70.5 q-1 -1 -7 -5t-7 -9q-76 3 -166 -8q-15 -48 -27 -191q0 -4 -1 -14t-1 -18l-8 -78l-8 -68q-5 -70 -8 -88h-53q-9 0 -31 -2t-31 -2q-37 0 -45 8q0 3 1 5.5t0.5 4t-3.5 4.5q3 31 23 192.5t28 242.5q3 3 6 4t4 4q-143 -12 -213 -6q-6 -29 -10 -63t-7.5 -75.5t-6.5 -64.5l-6 -16 q-1 -10 0 -19.5t-0.5 -21t-5.5 -19.5q-1 -27 -9 -81.5t-8 -78.5q-10 -10 -10 -16q-70 -9 -139 -6q-4 7 -19 14q3 40 14.5 118t14.5 118q14 164 24 217zM489 819q-1 -21 -9 -89t-7 -105q20 0 89 2.5t102 1.5q2 16 8 55t10.5 74t5.5 61q1 0 1.5 1.5t1 3.5t1.5 3 q-23 -1 -91.5 -6t-111.5 -2z" />
<glyph unicode="$" horiz-adv-x="1034" d="M860 1282q12 -21 29 -68q26 -87 20 -143q-1 -10 -4 -32t-3.5 -33.5t1.5 -34.5q-6 -6 -13.5 -9.5t-19 -5.5t-16.5 -4q-2 0 -14.5 -2t-16.5 -2.5l-16 -2t-18 -2t-16.5 -0.5t-18 0.5t-17 2t-18.5 4.5q-1 -4 -29.5 -1t-36.5 3q-5 17 -5 51t-3 50q-1 7 -1.5 26t-1.5 32.5 t-5 23.5q-3 10 -9.5 18t-18 17.5t-15.5 13.5q-25 25 -62 28q-29 3 -51 0q-29 -5 -54.5 -24t-35.5 -45q-12 -28 -8 -58q1 -7 12 -32l13 -33q6 -14 20.5 -33.5t15.5 -21.5q47 -55 66 -70l25 -23q4 -3 18 -11.5t20 -14.5l19 -19q16 -12 43 -30t48 -33.5t38 -32.5l53 -57 q10 -13 24.5 -36.5t20.5 -31.5q21 -21 31 -47l12 -19q11 -20 15 -34q32 -101 26 -171t-55 -171q-15 -15 -44.5 -46t-39.5 -39.5t-35 -27t-54 -31t-75 -28.5q3 -17 3 -41t-1.5 -54.5t-1.5 -46.5q5 -1 4.5 -8t-0.5 -8q-15 -6 -35 -10t-56 -8.5t-40 -5.5q-33 4 -39 18l4 160 q-4 3 -12.5 5t-11.5 5q-153 35 -221 139q-13 13 -33 45q-35 53 -35 187q0 21 2.5 41t7 46.5t6.5 37.5q27 12 75 14t78 -1.5t85 -10.5q4 -11 4 -52q0 -5 -0.5 -29t0 -33t2 -27t5.5 -31t11 -25q16 -26 41 -35q25 -13 61.5 -16t69.5 8q18 9 38.5 35t27.5 33q0 21 10 28 q-2 9 -5 35t-9 41l-37 61q-46 51 -83 84.5t-83 57.5q-4 4 -15.5 12.5t-15.5 13.5q-4 0 -8 4t-8 3l-68 61q-8 8 -34 26t-35 33q-20 12 -49 64q-36 42 -56 98q-23 63 -14 156q-3 19 1.5 40.5t16.5 53.5t15 43q15 18 37.5 54t33.5 50l70 66q38 30 86 45q3 0 20 3t25 3 q3 21 4 69t4 68q23 8 49.5 9.5t64.5 -0.5t50 -2q-3 -19 0 -72t0 -74q13 2 41 -10q50 -11 76 -27l22 -18q4 -3 13.5 -7t13.5 -7q5 -3 12.5 -12.5t10.5 -12.5l24 -25q29 -37 41 -57z" />
<glyph unicode="%" horiz-adv-x="1431" d="M477 809l-39 -12q-50 -13 -80 -13q-8 -1 -23 0.5t-20 1.5q-8 1 -25.5 2.5t-24 2.5l-19.5 3t-20.5 4.5t-17 6.5t-18.5 10l-22 16l-21 17q-3 9 -8 14l-8 6q-3 7 -8 9q0 6 -2.5 11.5t-8 12.5t-8.5 12q-2 3 -8 27q-8 8 -10 14q-4 7 -20 68v51q1 16 2.5 72.5t7 92.5t20.5 60 q3 19 11 34t25 35t22 26q77 54 176 63q29 0 59 -6q66 -10 109 -33q36 -20 59 -43q6 -6 10.5 -13t11.5 -19t11 -19l18 -39q3 -7 4 -24t4 -25q27 -170 -4 -289q0 -2 -6 -8q0 -10 -2 -12q-10 -17 -10 -25q-4 -4 -10 -12.5t-9 -11.5q-5 -6 -16 -15.5t-12 -11.5l-19 -16l-26 -17 h-10q-3 -1 -7.5 -4t-7.5 -4zM1348 434q14 -158 6 -237q-10 -46 -26 -76t-52 -76q-7 -4 -21.5 -17t-27.5 -18l-66 -16q-24 -5 -28 -8q-8 0 -27.5 -2t-29.5 -2t-24.5 1.5t-25.5 6.5q-23 -1 -54 11.5t-46 14.5q-23 12 -42.5 34t-29.5 39t-27 50q-38 134 -14 330q24 62 76 121 q29 29 69 43q65 26 113 26q5 0 33 -4q52 -3 90 -20l24 -9t24.5 -9.5t19.5 -10t20 -14.5l14 -12q11 -11 11 -15q1 -1 4 -1t4 -1q27 -49 33 -129zM834 743l-17 -55l-18 -49q-6 -20 -37 -92l-17 -39q-1 -3 -3.5 -17.5t-10.5 -19.5l-47 -123q-52 -138 -111 -276q-3 -8 -7 -25.5 t-9.5 -28t-15.5 -16.5q-1 -2 -1 -5t-1 -4.5t-4 -2.5q-9 4 -52.5 2.5t-54.5 -0.5q-5 0 -30.5 3t-39.5 3q-3 1 -5 -3t-5 -3q-11 2 -13.5 11.5t7.5 14.5q22 62 23 68q16 24 26 66q19 32 43.5 97.5t36.5 90.5q15 35 37.5 98.5t32.5 89.5q7 20 19.5 59t19.5 58q26 65 34 78 q3 14 7.5 27t11.5 28.5t10 24.5q5 14 15.5 41t13.5 35l8 24q8 19 23 58t18 45q5 30 25 79.5t26 73.5l8 10q6 23 22.5 62.5t20.5 50.5l23 57l24 54q2 5 4.5 14t5.5 16t7 13q29 2 41 2t46.5 -3t43.5 -3q39 0 51 -5q3 -3 9 -5t9 -5q-3 -14 -13 -35.5t-13 -29.5q-5 -14 -18 -46 t-22 -57.5t-15 -50.5q-17 -66 -33 -104q-9 -23 -26.5 -61.5t-31.5 -72t-24 -65.5l-37 -102zM1180 328q8 31 7 58t-26 52q-12 10 -36.5 16.5t-45.5 4.5q-24 -1 -37.5 -9t-18.5 -17t-15 -34q-1 -4 -5.5 -10.5t-5.5 -9.5q-1 -4 -1 -14t-1 -15q-12 -131 27 -170l47 -8 q49 -6 84 25q27 21 27 53q0 7 -0.5 23t-0.5 29.5t1 25.5zM434 1087q6 -3 6 3v47.5t-2.5 63.5t-9.5 44q-9 2 -23 8t-23 9t-23 4.5t-23 -4.5q-65 -21 -80 -56q-3 -6 -3.5 -17t0.5 -26.5t1 -19.5q1 -15 1 -46t1 -44q3 -53 25 -68q3 -3 9 -5t7 -5q45 -17 111 22q1 8 9 16.5 t9 10.5q1 1 1 5t1 7l2 2q2 2 2 6q4 2 1.5 9.5t-1.5 9.5q0 2 3 12t-1 12z" />
<glyph unicode="&#x26;" horiz-adv-x="1153" d="M926 240q15 -18 36.5 -31.5t54.5 -27.5t46 -21q14 0 31 -10q-1 -24 -13 -79.5t-14 -68.5q-39 -13 -97.5 1t-95.5 34q-4 4 3 4q-13 6 -36.5 25.5t-29.5 23.5h-4q1 3 -4.5 8.5l-13 13t-9.5 11.5q-59 -66 -127 -90q-5 5 -10.5 5.5t-7.5 -5.5q8 0 10 -2q-1 0 -3.5 -1.5 t-4.5 -2.5t-4.5 -1.5t-3.5 0.5t-2 3q-2 -6 -13.5 -10.5t-17.5 -0.5q-4 -3 -1.5 -3t1.5 -3q-10 -2 -35 -8.5t-44 -9.5t-40 -2q-3 0 -6 2t-6 2t-8 -1t-8 -1q-22 3 -63.5 15.5t-59.5 15.5l-4 4q-57 14 -107 51q-3 6 -13.5 12.5t-13.5 9.5q-56 49 -86 107q-3 4 -7 14t-7 13 q-2 5 -4 18.5t-8 19.5q-7 44 -10 107q5 14 5 38.5t5 37.5q-1 10 4 27.5t6 23.5q-2 2 2 2q-3 17 4 20q16 57 72 127q32 44 92 80q3 8 -2 15t-14.5 14t-12.5 12q-3 3 -8 11.5t-8 11.5q-3 5 -11 10.5t-10 7.5q-7 7 -18.5 26t-24.5 27q-5 11 -17 41t-21 48q-1 4 1 5l1 1l-7 8 q-4 54 -8 65q13 108 29 158q9 28 20 39v8q47 65 80 103q1 0 1.5 0.5t2 1t4.5 0.5q1 0 1 3t4 3q68 60 177.5 81.5t213.5 -16.5q7 -4 24.5 -13.5t29 -18t19.5 -19.5q4 -1 7.5 -4t8 -9t7.5 -9q3 -4 20 -21q59 -73 56 -156q0 -9 1.5 -27t1.5 -33.5t-3 -29.5q-110 -32 -203 -14 q-3 7 -3.5 24.5t-4.5 26.5q0 24 -25 49q-40 31 -82 39q-10 1 -33 -10.5t-32 -13.5q-3 0 -5 1t-5 1q-56 -59 -41 -172q16 -65 32 -84q10 -17 25 -23q7 -7 8 -10q49 -25 103 -37q11 -3 32.5 0t34.5 0q4 1 3 -2q0 -1 1 -2q266 13 369 8q5 -2 23 -5t26 -9q4 -13 8 -17 q13 -69 6 -116q-4 -73 -16 -80q-14 1 -38 2.5t-44 2.5t-37 1q-6 -68 -6 -223q-4 -85 12 -139q7 -25 17 -39zM664 424q0 5 1 15.5t1 17.5q0 15 -2 48.5t-2 51.5q-1 10 0 43.5t-3 38.5q-15 3 -32.5 4t-39.5 1t-34 1q-1 -1 0 -2t0 -2q-38 3 -72 -6q-73 -17 -106 -47 q-23 -23 -43 -51q-1 -15 -8.5 -70t-4.5 -82q2 -19 17 -45q9 -21 33 -45q6 -6 15 -16t14 -15t14 -10.5t20 -9.5q6 -1 28.5 -4t32.5 -4t27.5 -1t32 3t27.5 10q27 15 40 27.5t23 33.5l6 15q11 30 15 100zM600 23q0 4 2 6q-3 3 -6 -0.5t-6 0.5q-3 -9 0 -9q6 6 10 3zM612 33 q3 -1 11.5 1.5t11.5 -1.5q-16 -5 -23 0zM879 47q0 -4 3 -6t5 0q-2 0 -2 4q-4 0 -5 1q0 1 -1 1zM795 1102q1 2 0.5 6t-2.5 4q0 -8 2 -10zM899 37v-4q0 1 3 0t3 2q-4 0 -6 2z" />
<glyph unicode="'" horiz-adv-x="319" d="M66 1323q0 7 -1.5 26t-1.5 27q-4 50 0 54q6 12 84 12t101 -4q4 -13 10 -15q0 -13 -3 -46t-3 -50q0 -115 -6 -172q-4 -50 -4 -78q-4 -92 0 -121q-84 -6 -164 0l-8 256v47.5t-4 63.5z" />
<glyph unicode="(" horiz-adv-x="499" d="M434 1620l25 -57q2 -5 7.5 -12.5t8.5 -13t2 -9.5q-1 -6 -7 -11t-16.5 -10t-15.5 -8q-44 -23 -63 -59q-6 -22 -9.5 -51t-5.5 -66t-4 -55q-3 -40 0 -82q1 -65 -6 -219.5t-4 -233.5q4 -62 4 -90q0 -17 -1 -53t-1 -53q2 -72 -10 -189q-1 -12 4 -92q1 -19 3 -65.5t4 -72 t8.5 -60t17.5 -58.5q14 -24 20 -31q22 -37 80 -69q-3 -18 -19 -45t-20 -35l-16 -43q-13 -31 -21 -37q-4 -3 -14 -1t-14 -1q-5 3 -20.5 12t-24.5 12q-8 5 -24 10t-21 7q-13 7 -30 23.5t-28 23.5q-42 50 -57 82q-3 1 -3.5 4t1.5 4q-6 2 -6 6q-17 28 -21 96q-8 45 -4 101 q6 70 2 207q-12 147 -6 211v106q0 17 2 50t2 50t-4.5 57.5t-3.5 61.5q0 20 3 55t3 52q0 28 -4 82q-7 92 4 245q2 21 3.5 54.5t4 61.5t8.5 52q6 23 31 64q5 8 11.5 20.5t12 21t11.5 15.5q27 35 117 86q26 15 49 21h4q1 0 12 -11q3 -3 6 -5q4 -2 5 -5q14 -20 28 -51zM453 1559 q0 4 -4.5 3t-4.5 -3h9z" />
<glyph unicode=")" horiz-adv-x="487" d="M360 287q0 -16 -0.5 -45t-0.5 -53t1 -46q0 -12 1.5 -32.5t1.5 -36.5t-3 -31l-16 -104q-26 -59 -72 -99q-40 -40 -55 -49q-77 -35 -90 -39l-21 -4l-10 -8q-12 5 -26 37q-3 7 -7.5 23.5t-7.5 23.5q-2 5 -14 37.5t-16 52.5q6 3 6 6q6 13 28 24.5t27 16.5q15 11 37 55 q3 4 7 14.5t7 14.5q-1 34 3 100.5t5 83.5h-2q3 45 -3 126.5t-5 121.5q0 26 4 31q-2 2 -2 16q-2 34 4 150q-6 33 -1.5 99t1.5 99q-1 25 -1 51t0.5 55t0.5 44v125q0 12 -1 32.5t-1 28.5q11 162 -39 238q-10 10 -10 18q-20 14 -33 37q-10 6 -16 11.5t-11 12t-10 11.5 q49 80 72 160q4 0 10 -6h11q6 -6 18 -9q13 -10 41 -22t39 -19q29 -16 63 -53q9 -18 17 -18q0 -4 8 -16.5t14 -18.5q3 -1 10 -19t15.5 -50.5t15.5 -67.5q9 -36 5 -156.5t-1 -169.5q0 -5 1 -16.5t1 -16.5q3 -30 3 -63t-1.5 -71.5t-1.5 -59.5q0 -128 -4 -166q0 -46 2.5 -177 t1.5 -214zM145 229h5h-5z" />
<glyph unicode="*" horiz-adv-x="868" d="M752 1257l16 -8q10 -20 22 -60.5t17 -53.5q1 -4 -2.5 -7t-3.5 -6q-114 -45 -209 -98q17 -25 34.5 -55.5t38 -70.5t31.5 -60q1 -3 5 -4.5t4 -4.5q-4 -6 -10 -13t-11.5 -11t-15 -11t-13.5 -10l-28 -18q-19 -14 -31 -14q-9 2 -39 39l-18 16q-18 23 -50.5 62.5t-42.5 52.5 q-6 -3 -10 -11q-3 -1 -4 0.5t-4 1.5q-19 -17 -39.5 -38.5t-31.5 -35t-34 -44t-30 -39.5q-9 -3 -20 1.5t-17 4.5q-1 5 -14.5 11t-16.5 13q-3 0 -5 2.5t-3 2.5q-4 6 -14 12.5t-13 9.5q-2 1 -4.5 2.5t-5.5 1.5q-2 2 -2 4q0 1 -1 5t-1 8l33 49q23 39 51 108q16 26 14 39 q-1 5 -14.5 12t-21.5 9q-10 4 -22.5 7.5t-18.5 6.5q-24 16 -107 51q-6 2 -22 2l-5 17q2 5 12 36.5t19 47.5q0 4 2 10t2 10q8 8 11 23q6 -1 44.5 -11t61.5 -14q34 -5 37 -6q88 -29 98 -31q2 30 15 103q2 14 6.5 62t9.5 75q26 12 76 2q40 -3 51 -10q13 -75 24 -224 q24 -4 65 10.5t48 16.5q14 3 49.5 9.5t57.5 12.5z" />
<glyph unicode="+" horiz-adv-x="1073" d="M946 719q3 -23 1 -81t1 -83q-8 -4 -12 -8q-44 -5 -123 -6t-127 -6q-31 9 -51 -11q-2 -96 -2 -278q0 -7 1 -11t-3.5 -6t-6.5 -2.5t-8.5 -1t-9.5 -0.5q-47 -8 -117 -4q-46 0 -55 4q-5 267 -4 299q-43 4 -144.5 7t-148.5 8q-3 0 -3.5 1.5t0 3.5t-0.5 5t-4 3t-4 3 q-4 5 -0.5 24t2.5 25q0 10 0.5 31t0.5 38.5t-1 33.5q12 9 14 16q191 12 287 6q-7 98 4 234q1 7 1 23t1.5 28t5.5 22q-6 6 -2 17q11 -1 61.5 -1t82.5 -3q28 0 30 -2q4 -1 9.5 -7.5t9.5 -7.5q0 -15 -2.5 -89.5t-1.5 -129t8 -78.5q1 0 74.5 0.5t74.5 -0.5q89 -11 142 -4 q2 -2 4 -4.5t2.5 -3.5t2.5 -2.5t4 -1.5h7z" />
<glyph unicode="," horiz-adv-x="497" d="M369 217q5 -104 4 -141q-1 -10 -1 -20t0.5 -21t0.5 -17q-6 -24 -6 -26q-5 -24 -29 -98.5t-27 -118.5q-3 -1 -3 -4.5t-3 -6.5q-16 -1 -58.5 1.5t-58.5 -1.5q-2 2 -8 9t-12 8q5 33 13.5 106t13.5 109h-56q-3 13 -12 16q-2 51 -2 71t2.5 70t3.5 80q14 3 29.5 5t27.5 3 t31 0.5t27.5 -0.5t30 -1.5t26.5 -2t28 -2.5t25 -2q2 -2 5 -8.5t8 -7.5z" />
<glyph unicode="-" horiz-adv-x="788" d="M662 731q4 -28 5 -59.5t0 -75.5t-1 -57q-14 -11 -25 -15q-4 -1 -11 -1t-16 0.5t-14 0.5l-41 4q-15 0 -44 -2t-44 -2q-38 3 -115 1t-112 1q-12 1 -37 3.5t-35 2.5t-35 -2q-3 1 -5 5t-5 4q1 32 0 86.5t0 81.5q1 3 6.5 4.5t5.5 5.5q62 1 369 16q21 4 78.5 0.5t75.5 -2.5z " />
<glyph unicode="." horiz-adv-x="423" d="M350 10l-12 -16q-154 -5 -211 12q-4 66 -4 111q0 38 4 116q96 19 221 3q16 -31 12 -109t-10 -117z" />
<glyph unicode="/" horiz-adv-x="864" d="M801 1411l-31 -80q-34 -95 -41 -110l-41 -113q-13 -40 -20 -55q-2 -5 -7 -16.5t-7.5 -21.5t-2.5 -20q-5 -3 -8.5 -10.5t-5.5 -9.5q-1 -4 -10 -32t-15 -42l-73 -188l-21 -49q-3 -10 -11.5 -30t-12.5 -34l-13 -10q-3 -12 -9 -29t-9 -31q-9 -20 -43 -114q-12 -41 -37 -99 q-7 -19 -19.5 -57.5t-19.5 -58.5q-15 -39 -45.5 -115.5t-34.5 -85.5q-3 -3 -8 0q-3 -1 -4 -4.5t-4 -3.5q-32 3 -89.5 0t-88.5 0q-15 3 -2 16q-1 1 -3 1.5t-3.5 2t-0.5 4.5q57 160 136 357q9 24 30 84.5t35 93.5q14 29 35 88.5t35 87.5q11 24 69 174q7 15 15.5 45.5 t15.5 46.5q18 46 98 264q4 10 27 76.5t41 98.5q5 -1 6 2q2 4 4 6q142 5 197 -2q10 -13 -4 -27z" />
<glyph unicode="0" horiz-adv-x="923" d="M172 115q-10 11 -18 24t-18 32t-15 28q-18 41 -23.5 89.5t-6 128t-1.5 107.5q-5 117 -4 138q3 135 0 272q0 19 -1.5 50.5t-1.5 56t3 46.5q1 13 5 36t5 34q3 12 5 34.5t5 33.5q10 28 23 53q4 11 11.5 23t17.5 27t14 22q41 38 78 57q30 21 98 33h2q0 2 2 4q154 20 226 -4 q2 -1 8.5 -4t11.5 -4l23 -5q3 -1 9 -5t9 -5q2 -2 20 -8q7 -3 17.5 -11.5t17.5 -11.5q3 -5 14 -12t15 -12q86 -95 98 -182q17 -147 13 -416q0 -65 2 -98q10 -118 2 -211q0 -12 -1 -31t-1 -27t2 -25.5t2 -25.5q0 -21 -3 -42.5t-8.5 -45.5t-7.5 -37q-6 -10 -19.5 -36t-25 -43.5 t-26.5 -32.5q-54 -58 -107 -78q-41 -17 -67.5 -25.5t-67.5 -14.5t-82 -1l-39 6q-8 2 -20.5 3.5t-20.5 4t-14 8.5q-4 0 -15.5 2.5t-15.5 1.5q-8 7 -28.5 17.5t-28.5 17.5q-2 1 -11 7.5t-11.5 8.5t-10.5 8t-11.5 9.5t-9.5 9t-10 10.5t-8 11zM340 1067q0 -20 1.5 -71.5 t0.5 -80.5q-2 -88 -2.5 -106t2 -108t2.5 -109q0 -13 1 -32t1 -30q4 -32 4 -87.5v-69.5q5 -56 8 -64l21 -28q18 -22 24 -27q27 -16 60.5 -14t56.5 16q39 24 53 63q6 15 8 29.5t0.5 40t-1.5 33.5q0 14 -1 38.5t-1 35.5q-1 37 2.5 136t-0.5 128q-3 46 -1 158t-1 155q0 44 -7 60 q-12 28 -36 45q-17 13 -44.5 21.5t-50.5 6.5q-26 -1 -56 -23.5t-38 -45.5q-6 -16 -6 -70z" />
<glyph unicode="1" horiz-adv-x="665" d="M283 997q-5 122 -11 156q-16 -6 -46.5 -18t-49.5 -19.5t-44.5 -18.5t-45.5 -22q-20 7 -23.5 35.5t0.5 58.5q0 11 -2 42t0 50t9 37q4 0 6.5 -4t5.5 -4q-1 2 -3.5 6t-2.5 7q4 1 8.5 3.5t9 6.5t8.5 6l54 24l77 50l43 20q36 21 41 29q20 0 106.5 -3t96.5 1q4 -4 5.5 -12.5 t4.5 -12.5q1 -16 -4 -98q-1 -19 4 -125q3 -31 2.5 -97t2.5 -104q0 -5 -1.5 -14t-1.5 -14q0 -19 2.5 -57t2.5 -58q1 -11 0 -30.5t0 -31.5q0 -8 2 -26t2 -27q1 -70 -0.5 -192t-1.5 -160q0 -8 6 -113q0 -5 -6 -104q-4 -102 -4 -150q-7 0 -7 -10q-147 -13 -211 -6h-13t-13 4 q-6 6 -6 27q0 11 1.5 33t1.5 41t-3 36q-3 33 -3.5 70.5t0.5 89t1 70.5v227q0 13 0.5 35.5t0.5 39t-1 31.5q0 15 -1.5 65t-0.5 79v39q-1 23 0.5 60t1.5 52z" />
<glyph unicode="2" horiz-adv-x="880" d="M788 250q4 -3 8 -14.5t7.5 -27.5t5.5 -22q5 -22 0 -84q0 -24 -12 -86q-2 -3 -3.5 -8t-3 -8.5t-5 -6t-9.5 -1.5q-4 -1 -2 4q1 2 0 2q-17 4 -102 0t-107 -4q-19 0 -54 1t-54 1q-71 0 -197 -4q-3 -1 -4 1t-4 1q-28 -3 -87.5 0t-86.5 0q-4 2 -2.5 9t0.5 9t-3.5 6t-2.5 7 q-3 8 -3.5 16.5t0.5 22t1 20.5q0 11 -1 38t-0.5 46t3.5 37q2 16 28 106l13 43q1 3 5 6.5t5 6.5q3 4 4 13.5t4 12.5q4 4 4 8v7l6 8l4 16q1 3 5.5 5t5.5 5l4 15l24 37q19 33 29 43q6 16 39 59l31 47q13 18 34 49.5t29 42.5q4 2 10.5 12t14.5 13q3 10 7.5 17.5t12 15.5t10.5 12 q8 10 20.5 29.5t24 35t23.5 27.5q23 40 47 96q4 9 8 28t6 26q17 73 4 108q-5 18 -16 27q-15 5 -16 6q-3 1 -7 6.5t-6 7.5l-14 4q-4 2 -13 10.5t-17 11t-19 -0.5q-8 0 -25 -10q-35 -15 -49 -41q-2 -7 -12 -35.5t-14 -46.5q-9 -40 -9 -95q0 -6 -4 -34q-37 -11 -83 -12.5t-74 1 t-80 9.5q-3 1 -5.5 4.5t-5.5 3.5q-3 67 0 135q12 93 21 121q12 34 31 67q3 4 6 14t6 13q3 5 10.5 10.5t9.5 7.5q3 4 10 15.5t11 15.5l25 19q76 53 133 63l49 8q15 0 43 -4q7 0 24.5 1t30.5 0.5t27 -3.5q40 -8 84 -24q96 -42 182 -146q47 -82 45 -158q0 -47 -2 -65 q-5 -36 -43 -152q-4 0 -7.5 -6.5t-6.5 -9.5q-9 -28 -37 -69.5t-33 -49.5q-1 -3 -2.5 -4.5t-4.5 -3.5t-5 -4q-1 -4 -3.5 -8.5t-7 -9.5t-6.5 -7q-8 -11 -20 -30.5t-23.5 -35.5t-25.5 -28q-10 -17 -35 -45t-33 -39l-22 -33q-10 -11 -19.5 -24.5t-20.5 -31.5t-16 -26 q-60 -92 -78 -186q86 6 256 -6h74h43q5 0 19 1t23 0.5t13 -3.5z" />
<glyph unicode="3" horiz-adv-x="919" d="M834 395q0 -149 -33 -182q-68 -132 -166 -188q-11 -3 -66 -21l-24 -8q-2 -2 -8 -2q-1 0 -4.5 -1t-4.5 -1q-41 0 -53 -4q-2 0 -43.5 1t-64.5 5q-70 12 -101 26q-10 5 -24.5 17.5t-26.5 15.5q-8 16 -29 36.5t-28 33.5l-25 20q-2 6 -5.5 18t-6.5 21t-6 15q-24 73 -29 127 q0 13 2.5 32.5t3.5 26.5t1 18.5t1 18.5q0 4 3 26.5t-1 26.5q148 36 236 6q1 -3 2.5 -2t3.5 0q7 -26 4.5 -87.5t7.5 -84.5q14 -33 37 -49q5 -5 15.5 -10.5t13.5 -7.5t11.5 -8t10.5 -6.5t12.5 -3.5t16.5 1q39 5 51 10l25 21q21 15 28 33q3 17 3.5 41.5t3.5 40.5q-1 12 0 64.5 t-3 74.5q0 32 -14 57q-10 27 -26 35q-20 12 -41 12q-7 1 -19.5 1t-19.5 1q-8 1 -26 5t-26 4q-8 1 -15 -1t-13 -2q-31 88 2 207q26 8 83 15t79 14q18 11 34 47q8 84 -2 205q0 33 -2 49q-11 30 -16 35q-19 17 -56 23t-67 1q-64 -22 -82 -112q-4 -15 -4 -82q0 -26 -10 -64 q-50 -12 -84 -4q-17 -4 -38 -4t-33 1t-43 4.5t-38 4.5q1 5 0 8t-3 4.5t-4.5 4.5t-4.5 6q-1 4 0 12t0 11q0 2 -2.5 37t-2 39t2.5 40q0 4 2 11.5t2 11.5q1 6 1 17t1 19.5t4 14.5l8 23q6 23 27 61q4 4 8.5 9t11 11t9.5 9q4 5 10 16t10 16l15 13q33 33 71 55q23 13 33 18 q5 2 15.5 7t16 7.5t15.5 5t21 3.5q100 12 153 6q24 -2 74 -18q48 -13 67 -23l17 -16l45 -29q6 -10 25.5 -33.5t27.5 -38.5q5 -8 10 -24t7 -21l20 -41q4 -10 7 -21t4.5 -24.5t3 -23t2.5 -26t1.5 -24t1 -26t0.5 -23.5q9 -89 -26 -161q-5 -9 -13 -27t-13 -28t-13 -23.5t-17 -23 t-20 -17.5q-18 -13 -20 -17q36 -16 69 -73q52 -80 56 -277z" />
<glyph unicode="4" horiz-adv-x="952" d="M868 485q0 -2 2 -2l4 -1q4 -1 7 -1q8 -53 6.5 -121.5t-13.5 -111.5q-13 -5 -62 -4.5t-56 0.5q-3 -32 0 -98.5t0 -108.5q0 -16 -11 -45q-134 -16 -231 8q-6 25 -6 125q-4 84 -2 121q-57 5 -232 0q-18 0 -52 1t-52 1q-6 0 -49 -3t-51 1q-13 99 -7 151q0 26 3 41t12 27 q13 32 38.5 89.5t45 105.5t33.5 94l45 102q9 19 41 109q9 28 29.5 79.5t29.5 79.5q2 5 5.5 16.5t7 21t7.5 16.5l13 22q4 18 10 27q3 8 12.5 23.5t12.5 23.5q8 15 15.5 44t10.5 38q22 59 27 82q41 11 106 14q60 2 144 -8q43 -5 49 -14q1 -3 -0.5 -9t-1.5 -8q-2 -29 -2 -41.5 t2.5 -45t3.5 -44.5q0 -34 -4 -96q0 -2 2 -30t-2 -30q4 -3 1 -45.5t-3 -48.5q0 -4 1 -7l1 -3q0 -1 -6 -55q-1 -22 1.5 -97t-1.5 -94q4 -39 5 -82.5t0.5 -102t0.5 -93.5q18 -3 51.5 0t50.5 0q8 -8 8 -13zM508 494q0 31 3.5 124.5t3 159t-6.5 125.5v2l-92 -246q-13 -39 -21 -57 q-8 -23 -24 -61t-19 -45q16 0 50 1t57.5 0.5t48.5 -3.5z" />
<glyph unicode="5" horiz-adv-x="919" d="M823 567l4 -57q1 -13 -0.5 -38.5t-1.5 -35.5q0 -17 -1 -48t-1 -46q-1 -6 -1 -32.5t-3 -39.5q-2 -23 -18 -55q-38 -77 -86 -131q-6 -1 -11 -4.5t-11 -10.5t-7 -8q-3 -3 -12 -8.5t-12 -11.5q-90 -49 -216 -49q-105 0 -153 20q-15 8 -43 19q0 4 -3.5 6t-9 4t-8.5 4l-22 12 q-3 3 -9.5 7.5t-9.5 7.5q-27 28 -79 110q-4 14 -16 53t-15 58q-3 21 -2 64.5t-2 64.5q1 1 1 3q-1 1 -0.5 2t3.5 1q-5 12 -2 29t10 24q99 29 186 15q50 -7 56 -15q3 -4 3.5 -14t-0.5 -25t-1 -18q-1 -16 4 -92q1 -5 1 -13t1 -13t4 -9q11 -24 33.5 -42t50.5 -24q39 -8 94 23 q28 17 33 25q4 5 10 47q2 31 2 92q0 11 1 34.5t1 36.5q-1 13 0.5 36.5t1.5 31.5q0 7 -2 21.5t-2 21.5q0 28 -6 43q-3 8 -12.5 23t-12.5 28q-6 6 -6 8q-9 3 -12 11q-9 0 -25.5 4t-25.5 4q-26 2 -82 -19q-23 -10 -51 -38q-36 -1 -108 1.5t-103 2.5q-3 3 -3 7q0 2 -1 2.5 t-4 0.5q-8 62 -9.5 176t-3.5 145q-1 21 -1 43t0.5 48t0.5 40q0 62 -2 80q-2 0 -2 -2q-2 2 0 2l2 2q0 22 2.5 102t1.5 126q7 6 19 -6q1 1 0.5 3.5t0 4t3.5 0.5q91 6 340 2q16 -1 44 -2.5t51 -2.5t44 -1l166 -6l8 -13q24 -110 -2 -207q-3 -3 -4 -8t-4 -8q-165 17 -410 -6 q-3 0 -4 4.5t-4 5.5q-4 -18 -0.5 -84t2.5 -88q0 -15 2.5 -51t1.5 -62q4 4 11.5 6.5t18.5 4.5t17 4l29 10q100 22 186 -20q7 -3 18.5 -11.5t18.5 -11.5q3 -3 6 -4t7 -1t6 -1q51 -23 94 -80q29 -43 40 -99.5t17 -144.5zM100 1268q2 0 6 -2t5 2q-2 0 -6 2q-4 0 -5 -2z" />
<glyph unicode="6" horiz-adv-x="927" d="M823 629q7 -22 11 -84q0 -12 3.5 -70.5t2.5 -87.5q-1 -6 -3 -32.5t-3 -34.5t-3.5 -29t-5 -32t-7.5 -27t-11 -29q-21 -46 -49 -82l-33 -31q-27 -29 -68 -53q-30 -19 -73 -35q-11 -5 -21.5 -8t-17 -4t-21 -2.5t-24.5 -3.5q-33 0 -47 -2q-3 0 -4.5 3.5t-4.5 4.5q-52 0 -75 6 q-19 4 -33 12q-63 23 -98 43q-8 8 -32.5 31t-37.5 37q-47 51 -59 78l-5 26q-12 46 -12 58q-1 15 -1 45t-1 45q-3 44 -2 132t-2 132q-3 51 0 100v90q8 67 -2 158q-2 29 -2 39.5t3 37.5t3 34q1 12 3.5 34.5t4 35t5 30t8.5 31.5q8 23 27.5 57.5t23.5 42.5q50 52 116 80t162 47 q0 -1 1 -2t1 -2q7 0 27.5 1.5t30 2t24 -0.5t25.5 -5l43 -16l45 -15q14 -4 35.5 -17.5t31.5 -17.5q74 -63 95 -127q3 -7 7 -24t7 -25l16 -49q20 -89 11 -190q-8 -8 -9 -11q-95 -27 -211 -4q-7 1 -15 6t-13 5q-6 137 -8 157q-4 7 -13 24.5t-15 27.5t-17 21.5t-23 16.5 q-8 4 -26.5 4h-22.5q-45 3 -72 -12q-46 -24 -53 -67q-3 -22 1.5 -65.5t4.5 -61.5q2 -81 -2 -197q56 30 127 33q46 4 86 -4l45 -17q4 -1 28.5 -6t35.5 -10q27 -10 53 -33q31 -28 45 -43q6 -7 24 -39q5 -7 13.5 -18.5t13.5 -21t8 -21.5zM586 426q0 59 -6 86q-3 17 -13 33 q-9 26 -26 43l-17 16q-18 13 -35 19q-6 2 -28 2q-47 -4 -72 -15q-1 -1 -7.5 -5.5t-11 -7.5t-10 -8.5t-8.5 -10.5q-8 -14 -10 -29.5t0 -42.5t2 -37q0 -13 -1 -53t-0.5 -63.5t5.5 -39.5q5 -20 21.5 -46.5t29.5 -33.5q3 -3 14.5 -4t18.5 -4q3 -1 9.5 -3.5t9.5 -2.5 q16 -4 39 3.5t36 19.5l15 16l14 12q3 3 5 9.5t5 9.5q5 8 8 17.5t4.5 15.5t3.5 20t3 23q4 44 2 61z" />
<glyph unicode="7" horiz-adv-x="868" d="M803 1440q0 -13 -1 -56t-0.5 -79t3.5 -72q-61 -100 -76 -160q-5 -5 -9.5 -16t-8.5 -15v-12q-10 -17 -25 -57t-29 -58q-7 -33 -32 -92.5t-33 -89.5l-4 -24q-7 -20 -15.5 -62.5t-15.5 -62.5q-17 -57 -27 -97q-6 -28 -10.5 -60.5t-9.5 -74.5t-8 -67l-17 -88q-4 -66 -4 -103 q0 -3 1 -8t1 -8t-1 -6t-1 -6t2 -9.5t2 -9.5q0 -8 -1.5 -21t-1.5 -22t3 -16q-14 -8 -67 -8h-82q-19 1 -50.5 7.5t-47.5 6.5q-2 2 -2.5 4.5t0 4t-0.5 2.5t-4 1q-10 71 0 168q0 5 0.5 41.5t4.5 54.5l8 62q3 9 4 26.5t4 26.5q2 19 12 57q3 15 11 58t12.5 65.5t14 56t20.5 60.5 q10 25 26.5 70.5t22.5 60.5t51 131q12 30 38.5 84t37.5 80q26 58 32 88q-7 3 -22.5 3t-22.5 3q-17 -1 -62.5 -4t-69 -3.5t-68.5 1.5q-24 1 -67 -1t-66 -1q-29 4 -46 2q-23 0 -28 4q-31 83 -2 238q9 0 29.5 2t29.5 2q31 3 96.5 -2t102.5 -2q19 5 161.5 4.5t166.5 -0.5 q96 0 122 -4q2 0 10 3t9 -1z" />
<glyph unicode="8" horiz-adv-x="923" d="M756 797q-34 -39 -41 -45q7 -8 28 -30.5t34.5 -41t21.5 -39.5l10 -27q3 -12 12 -24q6 -21 8 -50t1.5 -55.5t0.5 -58.5q3 -52 -6 -98q-14 -139 -63 -205q-68 -68 -119 -103q-113 -44 -219 -36q-67 7 -143 32q-11 8 -34 19.5t-34 19.5q-3 3 -17.5 20t-23.5 23l-12 25 l-17 20q-32 55 -41 107l-6 65q0 5 -3 27t-3 35q0 143 12 194q23 104 107 168q-34 34 -57 72q-30 42 -41 78q-22 61 -25 125v35q0 7 1 17t1 17q-3 68 18 127q13 39 19 45q30 72 106 134q43 37 106.5 55.5t135.5 11.5q15 -3 43 -5t43 -5q15 -4 68 -27q5 -2 18 -7.5t21 -9 t18 -8.5t16 -10q71 -67 97 -106q3 -4 6 -14t6 -15q22 -44 25 -53q4 -18 4 -92q4 -72 0 -94q-3 -44 -17 -88q-18 -62 -28 -78q-5 -8 -18.5 -23.5t-18.5 -23.5zM575 324q11 52 11 131q0 35 -21 100q-22 38 -73 51t-91 -18q-1 -1 -2.5 -1.5t-3 -2t-2.5 -4.5q-51 -53 -47 -174 v-78q4 -30 15 -46t34 -36l39 -25q26 -9 64 -4q40 7 59 55q12 23 18 52zM559 1139l-2 2q-19 46 -50.5 63t-66 5.5t-69.5 -46.5q-6 -4 -9.5 -9.5t-7 -17t-4.5 -14.5q-11 -95 -2 -153q11 -66 29 -95q10 -17 34.5 -30t47.5 -15q47 -2 86 33q24 54 26 62q3 10 3.5 21t-0.5 27 t-1 23q4 101 -12 140z" />
<glyph unicode="9" horiz-adv-x="935" d="M852 836q0 -30 -4 -78.5t-4 -59.5q0 -9 2 -27.5t2 -27.5q0 -7 -1 -20.5t-1 -20.5q5 -97 4 -108q0 -18 -3.5 -47.5t-4.5 -40.5q-3 -82 -25 -166q-12 -44 -22 -67t-31 -50q-12 -23 -29 -39q-35 -25 -41 -31q-5 -3 -9.5 -9.5t-6.5 -8.5q-63 -47 -201 -47q-13 0 -36.5 3 t-34.5 3q-41 3 -82 12q-52 9 -109 55q-64 57 -86 115q-16 42 -31 113q-25 103 -6 194q106 25 238 0l16 -6q0 -92 10 -135q5 -23 6 -29.5t6 -21.5t11 -24t16 -17q31 -25 71 -29.5t71 17.5q3 1 4 2t2.5 3.5t3.5 4.5t7 6t8 8t7 10q3 6 13 43l12 47q5 30 5 71.5t-1 61.5t-7.5 80 t-6.5 62l-29 -12q-60 -27 -106 -25q-72 3 -140 31q-61 22 -104 65q-5 5 -22 18t-25 23q-4 5 -14.5 15.5t-17 18.5t-9.5 15l-4 21l-11 74q-6 24 -6 51q-4 173 2 223q3 10 5.5 28t5.5 27q2 5 9.5 19.5t10.5 23.5l4 21q8 18 24 42t21 32q64 64 154.5 92.5t197.5 11.5 q69 -12 129 -47l31 -21q4 -3 15.5 -8t15.5 -8q27 -15 43 -41q5 -5 10.5 -15.5t7.5 -13.5q27 -45 33 -59q7 -12 12 -31q2 -5 7 -39q6 -32 9 -93t5 -79q4 -37 2 -53q0 -20 1 -54t1 -54zM588 991q4 77 0 101q-4 50 -15 71q-8 11 -28 23q-45 31 -94 24q-14 -2 -27.5 -8.5 t-21.5 -12t-21.5 -16t-18.5 -14.5q-2 -6 -6.5 -16t-7.5 -19.5t-4 -19.5q7 -19 2 -76q-4 -124 31 -168q35 -41 92 -47q16 -5 43 6q4 2 7.5 3t6 2t4 2l3 2t3.5 2.5t3 3t3.5 4l4.5 4.5q27 35 37 73q4 17 4 76z" />
<glyph unicode=":" horiz-adv-x="487" d="M137 8q-8 63 -8 164v9v10v10.5t1 9t3 6.5t5.5 3.5t8.5 -1.5q0 8 7 8q62 7 192 11q0 -2 12 -13q8 -72 4 -215q-3 -5 -14 -16q-32 3 -99.5 -0.5t-101.5 2.5q0 9 -10 12zM356 688h-57q-24 -1 -80 1t-86 1q-18 87 -2 223q12 4 32.5 5.5t38 1t36.5 0.5q16 0 46.5 2t43.5 2 q3 -1 8 -1t9 -1t7 -4l6 -37q3 -37 0 -72q0 -79 -4 -100q3 -20 2 -21z" />
<glyph unicode=";" horiz-adv-x="501" d="M379 225q-4 -37 -4 -190q3 -17 2 -35t-10 -27q-22 -87 -64 -202h-110l-15 12q11 133 27 215q-3 0 -28.5 -1.5t-35.5 3.5q-6 30 -7 61t2 86t3 76q42 8 118 9t105 4h7q3 -1 5 -5.5t5 -5.5zM141 696h-2q-14 75 -14 125q0 77 8 103q15 9 21 -4q63 2 186 -2q6 0 6 -7 q6 0 12 -6q2 -15 3 -34t1 -33.5t-1.5 -39.5t-2 -35t-3.5 -39t-3 -34q-11 -5 -47 0h-74.5t-89.5 4v2z" />
<glyph unicode="&#x3c;" horiz-adv-x="796" d="M719 397q13 -26 8 -106t0 -103l-14 -12q-28 15 -78.5 47.5t-77.5 48.5q-49 28 -168 84l-41 23q-58 37 -117 72q-103 67 -161 90q0 4 -5 6.5t-6 5.5q2 16 6 78t17 106q12 4 32.5 16.5t32.5 16.5q28 17 64 35q8 8 53 33q2 2 10 7t11 9l77 43q37 22 130 72q5 3 16.5 11 t19.5 11q4 0 6 1t3 1q2 0 4 2l6 6l115 74q7 7 27 17t24 6q4 -7 0 -11q4 -4 4 -8q3 -11 4 -26t1 -26.5t-0.5 -30.5t-0.5 -29q1 -17 -1.5 -50t-2.5 -45q-12 1 -12.5 2t-9.5 -4.5t-13 -7.5q-33 -18 -68 -43q-33 -23 -96.5 -58.5t-85.5 -49.5q-14 -7 -48 -27.5t-52 -28.5 q-8 -3 -29 -16l43 -25q7 -4 20.5 -14t20.5 -14q12 -7 34.5 -17.5t33.5 -17.5q20 -16 55 -35q14 -8 46 -29.5t50 -31.5q5 -2 22.5 -9.5t26.5 -13.5l43 -29q4 0 10.5 -3t10.5 -3z" />
<glyph unicode="=" horiz-adv-x="1124" d="M995 856q0 -8 -1.5 -20.5t-1.5 -22.5t3 -20q0 -2 2.5 -7.5t2 -7t-2.5 -6.5q-3 -3 -7.5 -3t-9.5 1.5t-7 1.5q-7 0 -27.5 -3t-27.5 -3q-11 -1 -40 -1t-44 -1q-35 -5 -142 0q-76 3 -266 2.5t-283 3.5q-1 0 -5.5 5t-10.5 1q0 108 2 174q1 3 4.5 4t3.5 4q197 9 385 9 q37 0 131 4q23 0 71.5 -3t74.5 -3t74 2t71 2q38 0 49 -4q-2 -30 2 -109zM803 498q23 0 62.5 1.5t69.5 1.5t54 -3q6 -79 6 -181l-16 -16q-23 4 -50.5 4t-63.5 -2t-56 -2h-57q-4 0 -7 1t-4 1q-2 0 -2 2q-4 0 -12 -2t-12 -2q-15 0 -43 1t-43 1q-51 0 -74 2q-11 -5 -195.5 -4.5 t-220.5 0.5q-3 13 -8 80q-5 73 -4 82q0 21 8 29t33 8q16 3 33 3t39.5 -1.5t35.5 -1.5h109q101 -3 203 0q44 1 119 -0.5t96 -1.5z" />
<glyph unicode="&#x3e;" horiz-adv-x="796" d="M727 711q-3 -23 1.5 -88.5t0.5 -94.5q-3 -1 -7 -1t-7 -1q-22 -16 -45 -26q-7 -3 -15.5 -9.5t-15.5 -9.5q-4 -2 -17.5 -8.5t-19.5 -11.5q-5 -2 -16.5 -11t-20.5 -10q-11 -9 -61 -39q-38 -24 -82 -47q-26 -14 -88.5 -43.5t-97.5 -50.5l-33 -16q-38 -30 -60 -43 q-15 -9 -30 -21q-3 -2 -8.5 -6.5t-9.5 -7t-9 -4t-8.5 1t-5.5 10.5v33v63q0 11 -1 35.5t-0.5 41t3.5 32.5q24 19 67 45q117 74 133 82q53 28 195 112q-45 32 -134.5 86.5t-103.5 63.5q-4 2 -33.5 21.5t-47.5 27.5q-3 1 -31.5 20t-46.5 25q-1 20 -4 68t-3.5 71.5t1.5 65.5 q2 2 8.5 4.5t7.5 7.5q68 -26 166 -90q40 -17 117 -67q140 -91 229 -138q8 -5 28 -17t30.5 -18.5t28 -14.5t34.5 -13q0 -7 12 -10z" />
<glyph unicode="?" horiz-adv-x="1001" d="M866 1008q-8 -40 -26 -82q-17 -30 -90 -131q-14 -18 -27 -40t-30.5 -54t-24.5 -44q-5 -9 -20 -33t-22 -37t-15 -36t-11 -47q-3 -16 2 -52.5t2 -52.5q-2 -2 -5.5 -4t-5 -3.5t-1.5 -4.5q-114 -12 -230 10q2 21 3.5 56.5t3 55.5t5 46.5t9.5 48.5q6 26 35 78q3 5 7.5 16.5 t8.5 18.5h2l2 2q-2 0 -2 2l17 27q12 20 30.5 57.5t30.5 56.5l31 56q2 4 19 29t23 36t17 33t15 41.5t4 40.5q0 59 -31 88q-14 12 -42 23.5t-46 11.5q-25 1 -56 -16.5t-42 -37.5q-8 -18 -11 -41q-3 -22 -4.5 -69t-5.5 -78q-96 -16 -166 -10q-59 4 -78 16q-19 129 -2 195l15 47 q35 82 41 94q18 31 67 76q25 25 39 33q11 6 39.5 15.5t40.5 18.5q1 -3 3.5 -2t6.5 -2q67 21 168 15q70 -8 141 -48q19 -10 45 -28q10 -7 19 -15t18.5 -19t15.5 -17.5t16.5 -21.5l14 -20t15 -22.5t12.5 -19.5q2 -8 12 -45t11 -60q9 -78 -13 -151zM377 233q80 15 219 11 q15 -71 0 -199l-3.5 -14t-2.5 -14t2 -15q-26 -9 -88 -8t-96 -2q-8 0 -19 5t-18 5q-17 111 6 231z" />
<glyph unicode="@" horiz-adv-x="1996" d="M1876 872q2 -49 -8 -120q-5 -58 -6 -62q-15 -107 -21 -133q-2 -5 -6.5 -26t-9.5 -29q-22 -59 -60 -105q-5 -8 -20 -30.5t-26 -37t-23 -26.5q-16 -17 -55 -39.5t-54 -36.5h-10q-7 -3 -19.5 -10t-19.5 -10q-2 -2 -16 -2q-26 -10 -47 -12q-37 -4 -89 1.5t-86 16.5l-32 16 q-7 3 -13.5 7t-13 9.5t-10.5 9.5t-11 11.5t-10 10.5t-10.5 12.5t-9.5 11.5q-22 55 -29 102q-25 -25 -69 -51l-23 -18q-7 -3 -33.5 -12t-40.5 -17q-90 -38 -172 -6q-4 1 -9 3t-11.5 5.5t-11.5 5.5q-16 5 -80 41l-43 39l-17 15q-3 3 -4 8t-4 8q-3 5 -19.5 27t-21.5 32 q-13 32 -16 84q-8 39 -4 86l8 45q5 45 8 54l18 45q3 8 5.5 22t5.5 21q1 1 9 16t9 25q41 59 53 71q33 42 60 60q12 7 32.5 16.5t32.5 15.5q6 3 17 9.5t16 7.5q3 1 7 1t5 1q5 1 20 6t23.5 7.5t21.5 5.5t25 4.5t23 0.5q92 -7 199 -73q8 13 13 41.5t9 38.5q36 8 146 -7 q2 0 14 -0.5t17 -3t5 -8.5q0 -12 -4.5 -34t-5.5 -33q-17 -85 -20 -224q-3 -42 -14.5 -118.5t-14.5 -118.5q-14 -90 4 -123q6 -11 27 -23q46 -26 98 -18q12 2 45 16q31 13 41 19q11 6 21.5 15.5t26 26t20.5 21.5q30 32 47 86q-1 12 1 25.5t7 34.5t6 28q14 126 4 191 q0 10 -4 14q3 23 -5 67.5t-9 53.5q-10 10 -10 29q-5 8 -25 53q-10 31 -43 82l-6 10q0 -2 -6 4q-1 1 -1 4t-3 6q-20 28 -35 43q-3 4 -5.5 7.5t-6.5 7.5t-7 8q-3 3 -5 7t-5 5q-1 3 -5 4t-7 4l-6 9q-6 5 -15 9.5t-15.5 7.5t-18 8t-17.5 7q-17 7 -72 25q-2 1 -7.5 3.5t-8.5 2.5 q-3 1 -8 1t-8 1q-5 1 -15.5 5t-15.5 5q-4 1 -13.5 1t-13.5 1q-42 10 -75 13q-127 11 -205 2l-33 -6q-7 0 -17.5 -1t-17.5 -1q-42 -7 -86.5 -24t-74 -32t-74.5 -41q-23 -18 -45 -37t-53 -48.5t-42 -39.5q-14 -22 -34 -43q-11 -20 -35.5 -51.5t-36.5 -50.5l-25 -43 q-44 -89 -67 -229q-11 -61 -13 -105v-24v-25v-23.5t0.5 -26t1.5 -24t2 -25.5t2.5 -24t3.5 -26t5 -23.5t6 -24.5q37 -136 129 -225l31 -29q4 -4 13 -14.5t15 -15.5q30 -30 82 -60q79 -41 92 -45q36 -12 166 -26q51 -6 150 4q19 1 49 10.5t41 11.5q45 9 86 29q9 -6 22 -6 q31 -87 37 -125q3 -10 -2 -10q7 -6 7 -17t-5 -16q-1 -1 -6 0t-6 0q-10 0 -25 -12q-1 0 -84 -25q-16 -6 -35 -10.5t-33 -8t-38.5 -6.5t-34.5 -4.5t-39.5 -4t-35 -3t-39.5 -2.5t-35 -2q-14 2 -43.5 4.5t-55 6t-47.5 9.5l-69 19q-41 15 -111 47q0 -2 -6 -2q-2 1 0 2q3 1 0 4 q-5 3 -27.5 17.5t-30 19t-28 18t-30 21t-27 20.5t-28.5 22.5t-24 22.5t-24 25q-2 6 -29 49l-31 43q-30 40 -53 98q-31 74 -43 185l-8 100q-5 42 8 137q8 57 21 127q32 143 45 185l18 49q8 27 27 75.5t26 69.5q7 9 39 54.5t45.5 63.5t41 48t53.5 51q8 8 24 19.5t23 17.5 l20 19l43 24q26 19 43 25q7 4 27.5 16.5t35.5 21t33 15.5l33 16q10 3 31.5 8t28.5 7q41 11 102 20q36 5 43 8q7 1 19.5 5.5t19.5 5.5q5 1 15.5 0t17.5 0q3 0 9 1.5t10 1.5t7 -3q-1 3 2 2t4 2q2 -2 4 -2l3 -2q25 11 36 6q3 0 5.5 -2.5t5.5 -3.5q4 -5 21.5 -0.5t21.5 4.5 q3 0 3 -3t3 -3q16 13 31 -2q5 2 10.5 3t13 -0.5t12 -2.5t14 -3.5t13.5 -3.5q14 -3 43.5 -3t42.5 -3q41 -2 100 -26q67 -27 88 -43q38 -11 80 -47q21 -19 60 -46q33 -25 55 -59q1 -1 4 -3.5t4.5 -4t3 -4t2.5 -5t0 -5.5h9q-6 0 -3 -3q9 -11 24.5 -34.5t18.5 -28.5 q6 -22 21 -37q4 -11 28.5 -64t32.5 -85q22 -87 25 -179zM1130 784q0 3 3.5 5.5t3.5 5.5q-20 113 -166 110q-6 -6 -14 -10t-18 -7.5t-15 -6.5q-28 -20 -45 -37q-42 -36 -62 -86q-5 -10 -8.5 -20t-6 -23t-4 -22t-2.5 -25t-1.5 -22.5t-1 -25.5t-0.5 -24q4 -4 5.5 -10t1.5 -14 t1 -11q6 -54 55 -81t117 -19q39 2 94 41q12 10 20 24t13.5 34t8 34t6 41t5.5 37q6 41 10 112zM1729 1303h2h-2z" />
<glyph unicode="A" horiz-adv-x="1034" d="M961 57l4 -28q1 -3 3.5 -8.5t2.5 -8t-2 -8.5q-165 -11 -244 -6q-7 7 -10 8q-1 17 -4 32t-9 33.5t-8 28.5l-14 56t-15 65t-10 58q-56 3 -147.5 -2t-130.5 -5q-5 -21 -26.5 -122t-39.5 -152q-160 -13 -241 -2q-6 5 -2 27q8 38 26 161q9 34 12 66q5 24 13.5 72.5t13.5 72.5 l21 76q0 19 12 51q2 17 8 69t10 79l17 63l6 35q1 3 5 10.5t4.5 10l2 10t-1.5 10.5q1 3 4 5t4 5q3 27 15.5 93t17.5 98q2 22 14 53q0 20 11 53q6 10 10 37q3 19 8 57.5t8 55.5l6 28q3 10 8 39.5t9 44.5q1 6 3.5 17t4.5 18t5.5 16t8.5 15q110 21 303 2q3 0 5.5 -3.5t5.5 -2.5 q5 -41 39 -195l10 -65l16 -60q4 -17 41 -190q12 -62 39 -181t39 -184q10 -48 20 -114q3 -17 14 -48.5t15 -46.5q4 -17 18 -88.5t23 -109.5l10 -52zM420 530q43 -2 63 -1.5t61.5 3t57.5 3.5q-45 224 -53 256q-3 12 -21 69t-18 84q-26 -144 -90 -414z" />
<glyph unicode="B" horiz-adv-x="1015" d="M221 2q-9 0 -24 -1.5t-26 -1.5t-19 3q-4 1 -12 5t-13 5q3 48 1 142.5t1 148.5q0 12 -1 37t-1 39t-1.5 58t-0.5 71q6 123 6 389q0 45 -1 136t-1 136q0 27 1.5 84t1 100.5t-4.5 82.5q26 3 66.5 3.5t102 -0.5t83.5 -1q22 -1 59.5 1.5t53.5 2.5q140 3 237 -51q47 -29 59 -39 q13 -13 25 -33q30 -44 43 -76l18 -43q4 -16 19 -123q13 -95 -23 -194q-27 -88 -86 -144l50 -43q3 -3 12 -10t13.5 -11t10 -11t9.5 -13q1 -1 16 -37q1 -2 11 -21.5t14 -33.5l4 -39l4 -43q0 -13 3 -36t3 -35l-6 -35q0 -1 -1 -14t-5 -19q0 -51 -35 -127q-1 -3 -9.5 -23.5 t-12 -28t-11.5 -21t-16 -23.5q-6 -9 -16 -18t-18 -15t-20.5 -15.5t-17.5 -13.5q-2 -5 -5.5 -9t-10 -6.5t-9.5 -3.5t-13.5 -3.5t-12.5 -3.5q-7 -6 -16.5 -9.5t-24 -5.5t-21.5 -4q-37 -6 -80 -6q-17 0 -52 1.5t-62.5 1.5t-46.5 -3q-8 0 -28 -1t-32 -1q-44 -2 -131 2zM672 455 v32q0 22 -9 46.5t-20 35.5q-10 10 -39.5 19.5t-48.5 7.5q-5 0 -15.5 -1t-15.5 -1q-19 0 -45.5 1.5t-45.5 1t-44 -4.5q-4 -61 -1.5 -184.5t1.5 -165.5q119 -11 180 0q31 5 47 11.5t27 22.5q21 28 23 37q8 13 4 49q0 13 1 45t1 48zM383 1192q-1 -17 1.5 -60.5t-1.5 -58.5 q3 -9 0 -22q8 -105 0 -211q17 0 51 -2t61.5 -2t49.5 4q18 4 32.5 11.5t32.5 21t23 16.5q4 21 4 108q0 7 1 18.5t1 18.5q0 40 -2 56q-1 12 -7 35t-7 36q-9 11 -22 19t-30.5 12t-32.5 6t-39.5 1.5t-38 -1.5l-40.5 -3t-37 -3z" />
<glyph unicode="C" d="M862 489q1 -11 1 -23t-0.5 -28.5t-0.5 -27.5q0 -9 1 -29t1 -29t-3 -27.5t-3 -27.5q-3 -56 -22 -98l-35 -64q-10 -18 -25 -32t-40 -30.5t-36 -25.5q-40 -28 -75 -37q-50 -13 -86 -20h-25.5t-28.5 -4q-17 3 -51 4t-51 4q-1 0 -21.5 1t-31.5 5q-60 16 -88 41q-24 20 -31 22 q-22 33 -57 68q-3 10 -8 19.5t-12.5 19.5t-10.5 16q-5 7 -10 31q-11 18 -13 29q-3 7 -4 15.5t-1 21.5t-1 20q0 11 -2 33t-2 33q-2 1 -1 32.5t1 32.5v68q-4 7 0 64.5t4 64.5q-1 20 -6 76t-4 84q0 7 1 18t1 18v17q0 3 2 7t2 7q0 7 -1 18.5t-1 18.5q0 124 4 158v40t4 48 q12 52 21 84q18 68 43 96q2 11 7.5 19.5t17.5 17t18 12t24 12.5l70 39q5 2 20.5 9.5t27.5 12t26 7.5q14 2 41 2q51 6 145 -6q12 -3 34 -4t34 -4q6 -2 24.5 -11t28.5 -10q3 -5 8.5 -9.5t9.5 -7.5t10.5 -7t10.5 -7q1 0 3 -4t5 -8q3 -3 7 -4t7 -4l17 -18l14 -19q17 -20 45 -59 q48 -98 37 -309q-12 -7 -37 -7q-8 -1 -40.5 -4.5t-55.5 -3.5q-47 0 -68 4q-5 1 -15 3.5l-14 3.5t-9 3.5t-9 6.5q0 7 2 42.5t2 49.5t-3 37.5t-9 40.5q-3 4 -5 12.5t-5 11.5q-13 24 -58 37.5t-84 5.5q-16 -2 -49 -16q-7 -4 -17.5 -15.5t-17.5 -15.5q-15 -27 -18 -59t1.5 -83 t4.5 -73q0 -51 -2.5 -170t-1.5 -182q4 -94 4 -133q0 -10 -0.5 -33t-0.5 -35.5t1.5 -31t5.5 -35.5q10 -50 64 -76q7 -1 24.5 -5t26 -5t22 0t25.5 6q4 1 8.5 4t10.5 7.5t10 6.5q45 23 53 35q3 4 4.5 14.5t5.5 14.5q-2 15 5 66t-1 75l4 20q65 30 162 21q8 -1 25.5 -5t25.5 -5 q26 0 33 -7z" />
<glyph unicode="D" horiz-adv-x="985" d="M903 784v-75q0 -31 -1.5 -103t-0.5 -110q2 -31 -2 -97q0 -4 -1 -15t-0.5 -17t5.5 -11q-3 -89 -51 -188q-21 -39 -50 -68.5t-73 -64.5l-63 -21q-7 -1 -22.5 -1t-22.5 -1q-3 0 -10.5 -1t-10.5 -1l-74 -4l-186 -10q-94 0 -137 2q-7 1 -20.5 0t-20.5 0q-2 1 -3.5 3t-2.5 3 t-2.5 2t-3.5 0.5t-7 -0.5q-6 43 -10 115q-1 5 0.5 12t1.5 10q0 8 -1 25t-1 25q0 67 4 215q0 13 -1 41.5t-1 44.5t-1 45t-1 45q0 5 3.5 33.5t-1.5 33.5q0 3 -1 8.5t-1 8.5q-1 4 -1 9.5t0.5 12.5t0.5 12v115q0 18 -1.5 79t-0.5 93q4 112 -4 191v41q-1 22 2.5 99t-0.5 105 q1 2 7.5 6.5t6.5 8.5q158 9 349 -4q48 0 71 -2q66 -13 94 -11q12 -7 37.5 -18.5t36.5 -18.5q3 -1 7 -5t7 -5q4 -3 21 -10.5t25 -15.5q20 -14 47 -56l22 -37q4 -12 11 -36t10 -35q15 -63 16 -74q4 -39 0 -162q0 -1 6 -166zM635 285l16 53q10 68 -2 168q2 27 2.5 34t-2 33.5 t-2.5 36.5q0 8 1.5 29.5t0.5 34.5q-2 23 -2 63q4 24 1.5 94.5t-1.5 94.5q0 18 2 58.5t2.5 66t-5 57.5t-19.5 53q-16 22 -47 33l-19 8q-18 8 -78.5 3t-83.5 -3q-4 -32 -2.5 -121.5t0.5 -109.5v-78q0 -21 -2 -66t-2 -69t1 -71.5t1 -68.5q0 -23 2.5 -85t1.5 -97 q-1 -21 0.5 -97.5t-2.5 -100.5q16 -3 49 -3.5t46 -3.5q68 3 122 31q15 8 21 23z" />
<glyph unicode="E" horiz-adv-x="997" d="M897 252q23 -110 4 -176q4 -14 -2 -44t-6 -32q-12 -9 -19 4l-253 4q-40 1 -113.5 -5t-106.5 -7q-40 -3 -80 -3.5t-95 0.5t-79 1q-3 3 -8 5t-8 5q-3 41 -3 121.5t-3 120.5q-1 19 0 59.5t0 59.5q-4 58 0 235q1 2 1 8t3 10q-3 4 -3 9t1.5 11t1.5 9q0 13 -2 37t-2 35 q-2 23 -2 63q-5 44 2 62q-1 26 0.5 131.5t-2.5 138.5q0 2 -2 4v6h2q2 100 2 297q10 7 10 15q98 8 270.5 5.5t272.5 0.5q32 1 90.5 -1.5t81.5 -2.5q4 0 14.5 1t18 0.5t14.5 -3.5q0 -2 0.5 -5.5t1.5 -10t2 -11.5q7 -35 8 -37q0 -12 0.5 -35t0.5 -35t-1.5 -30t-5.5 -35 q0 -31 -10 -61q-10 -3 -20.5 -3t-21.5 1.5t-17 1.5h-107q-18 0 -51 2t-49 2h-244q0 -21 2 -23v-4q0 -22 -4 -72l-2 -2q0 -19 -2.5 -61.5t-3 -65.5t3 -56t12.5 -58q26 0 80.5 2t98.5 2t77 -4q10 3 20.5 3.5t25.5 -0.5t22 -1q3 0 9 -1t9 -1t14.5 1t20 0.5t14.5 -3.5 q26 -124 4 -238q-14 -2 -43 -2q-101 4 -151 2q0 -4 -2 -2q-28 3 -60 3t-73 -1.5t-66 -1.5q-14 -234 -4 -344q43 0 192 -4.5t224 -1.5q14 0 26 6q7 -3 25 -2t25 -2q12 9 20 4z" />
<glyph unicode="F" horiz-adv-x="987" d="M891 1438q8 -55 8 -133q0 -6 -2.5 -20.5t-1.5 -22.5q0 -3 2 -8.5t2 -8.5q1 -13 -2.5 -34t-3.5 -25q-36 0 -120 3.5t-132 2.5q-11 0 -30 -1t-31 -1q-128 4 -191 -2q-8 -52 -1 -172t3 -172q47 3 167 -2t163 -2q8 0 18.5 1t16.5 1.5t12.5 -1.5t11.5 -7q22 -63 8 -150 q-6 -25 -10 -80q-46 4 -99 5t-86.5 0.5t-102 -2t-97.5 -1.5q-8 -38 -8 -137q0 -88 2 -131q0 -49 2 -72q4 -92 2 -133q-6 -105 -6 -113q-1 -4 -2 -8.5t-1.5 -6.5t-0.5 -3q-146 -28 -240 0q-3 9 -12 12q-3 23 0 71t0 73q-6 11 -2 99.5t4 104.5q1 25 3 66.5t3 76t0 66.5 q-2 41 -2 119q-1 36 0 109t0 110q-1 22 -3.5 71.5t-2.5 70t2 67.5q3 43 3.5 94.5t-0.5 124t-1 99.5q1 2 3 2.5t3.5 0.5t3 1t0.5 4q135 0 207 -2h82q38 4 62 -2q65 4 327 4q52 0 70 -6z" />
<glyph unicode="G" horiz-adv-x="946" d="M854 963q-57 -8 -83.5 -8t-86 4.5t-80.5 5.5q12 164 -43 221q-4 4 -8 7t-10 5.5t-9.5 4.5t-11.5 4t-11.5 3t-13 3.5t-12.5 3.5q-44 -12 -61 -19q-29 -9 -49 -29q-18 -12 -26 -28.5t-9 -46.5v-103q0 -32 -4 -98q-1 -23 0.5 -64t1.5 -49q-1 -18 -1 -38.5t0.5 -45t0.5 -37.5 q0 -20 -2 -55.5t-2 -52.5q0 -166 12 -229q5 -22 20 -45.5t31 -30.5q30 -13 64 -13q5 -1 35 5q64 16 90 55q18 53 22 69q1 17 -1.5 47.5t-2.5 43.5q0 9 1 31t0.5 37.5t-3.5 29.5q-19 -1 -61.5 -1t-61.5 -1q-24 125 10 221q11 4 11 10q15 1 44.5 0t45.5 0q18 1 48.5 -0.5 t41.5 -1.5q136 -5 178 0q3 -3 2 -7q-1 -1 2 -1q1 -44 -5 -148t-3 -171q3 -52 4 -157.5t4 -162.5q1 -18 -2 -51.5t-2 -48.5l4 -21q-2 -2 -7.5 -5.5t-8.5 -8.5q-75 -11 -127 10q0 -5 -4 -6q-2 0 -4 2q-8 8 -12.5 34.5t-10.5 37.5q-5 -8 -13 -14.5t-13.5 -9t-19 -7t-17.5 -6.5 q-3 -1 -37.5 -18t-52.5 -23q-49 -12 -111 -12q-60 0 -113 24q-3 0 -1 2q-1 2 -3 2v-2q-4 0 -15 4.5t-18 5.5q-47 31 -92 89q-6 8 -19 24.5t-21 26.5t-17 25.5t-14 29.5q-12 30 -12 79.5t-7 67.5q-1 66 -1 197t-1 205q-1 41 -3 106t-3 116.5t0 94.5q1 10 1 29.5t0.5 32t3 29 t5.5 28.5l12 33q3 5 6.5 16.5t6.5 16.5l26 37q3 5 9.5 12.5t10.5 13.5t7 12q6 3 13 11t10 10q12 7 50.5 31t67 36t60.5 17q119 13 172 8q7 -1 18.5 -5t18.5 -5l28 -6q40 -13 60 -15q3 -5 6.5 -7t11.5 -4.5t12 -4.5q45 -26 88 -94q35 -53 50 -109q16 -47 18 -61q9 -65 0 -127 q-1 -6 0.5 -27t-2.5 -26z" />
<glyph unicode="H" horiz-adv-x="1064" d="M381 1421q-1 -22 -6 -91.5t-4 -110.5q4 -101 12 -201q7 -69 4 -178q45 3 90 3.5t109 -0.5t94 -1q14 320 6 581q96 33 246 4q6 -15 -4 -32q3 -40 1 -121.5t1 -124.5q3 -62 4 -135.5t1 -168.5t1 -147v-151q0 -13 -1 -37t-1 -37q1 -11 1 -23.5t-0.5 -26.5t-0.5 -22v-29 t4 -36q0 -3 2 -9.5t2 -9.5q1 -7 1 -21.5t1 -21.5q0 -24 -1 -76t-1 -77v-125q-8 -6 -17.5 -7t-23 1t-20.5 2q-18 0 -53.5 -1.5t-67.5 -1.5t-62 3q-2 2 -4.5 7.5t-7.5 6.5q-3 12 -3.5 24t0.5 28t1 24q1 24 0 68t0 65q4 88 0 371q-88 -2 -287 2q-3 -18 -3.5 -63.5t-4.5 -67.5 q0 -25 1 -93t1 -112q0 -27 -2 -77.5t-2 -70.5q1 -7 3.5 -23t2.5 -22t-2 -20q-3 -8 -6 -8q9 -9 6 -33q-10 -3 -10 -8q-119 -9 -236 0q-3 8 -8 8q-13 280 -8 375q0 13 3 37t3 36q0 14 -1 40t-1 40q4 36 4 56q-3 52 -2 158t-2 159q-4 109 2 164q4 22 1.5 79.5t-1.5 76.5 q0 9 2 26.5t2 26.5q0 6 1 74.5t-5 83.5q7 0 18 3t15 3q3 1 7 0t5 0q0 3 6.5 4t18 1t16.5 1q49 4 90 -4q54 -4 70 -17z" />
<glyph unicode="I" horiz-adv-x="524" d="M135 719q0 42 0.5 116.5t0.5 130t-1 99.5q0 45 0.5 119.5t0.5 131.5t-1 105q6 0 10 13q65 8 166 8q58 0 72 -8q3 -32 4 -70t1 -66t-0.5 -74t-0.5 -71q2 -72 2 -225q0 -9 -1.5 -26t-1.5 -30.5t3 -23.5q1 -3 3.5 -5t2.5 -5q1 -4 1 -10t-0.5 -13t-0.5 -10v-27q0 -12 1 -32.5 t1 -28.5q-4 -16 -4 -23v-67q0 -23 -4.5 -137.5t0.5 -143.5l8 -86q6 -131 0 -260q-6 -5 -14.5 -7.5t-15 -3t-18 -1t-17.5 -0.5q-67 -10 -129 -2q-6 0 -17 0.5t-17 1t-13.5 3t-12.5 7.5q-6 106 -2 364q1 47 0 106t-3 134t-3 117z" />
<glyph unicode="J" horiz-adv-x="991" d="M422 -6q-72 0 -133 24l-117 78q-1 4 -4 8.5t-7.5 9.5t-6.5 7q-3 4 -7.5 14.5t-7.5 14.5q-21 37 -36 94.5t-15 109.5q0 7 3 50t-1 53q-5 110 -4 143q1 1 4.5 5t3.5 5t2 6.5t0 8.5q3 0 25.5 2.5t28 3t26 2.5t29 2t26.5 0.5t28.5 -0.5t25 -2.5t26.5 -4.5t23 -7 q4 -25 5.5 -58.5t0.5 -60.5t0 -60q0 -10 1 -22t2.5 -26t2.5 -23q11 -80 29 -107q8 -3 21.5 -10t24 -11t21.5 -5q90 -10 129 41q3 3 5.5 10t5.5 10q8 10 12 23q1 3 1 9t1 9q0 2 3 7t3 9q1 13 -0.5 39t-1.5 35q4 176 0 236v125q0 39 1 123t0.5 142.5t-3.5 117.5q-28 3 -101 2 t-114 2q-43 3 -68 10q-25 56 -10 168q2 9 5.5 35t8.5 36q0 3 3 4.5t4 4.5t-1 5q-1 2 0 2l3 1q1 1 1 2q-1 1 -0.5 1.5t3.5 0.5q13 1 36 -0.5t31 -1.5q35 -3 72 0q24 1 65 -1.5t56 -2.5q39 1 123 -3t133 -3q0 -8 8 -11q1 -37 1 -117t1 -120q0 -16 4 -48t4 -48q0 -8 -1 -25 t-1 -25l-6 -45q0 -17 4 -53q2 -72 2 -194q0 -5 -1 -17.5t-0.5 -21t3.5 -15.5q-3 0 -3 -2.5t-3 -1.5q3 -3 3.5 -4t-0.5 -3t-1 -5q5 -61 0 -76q3 -7 3 -16.5t-1.5 -23t-1.5 -21.5q0 -10 1 -37t0.5 -47.5t-3.5 -38.5q-1 -12 -1 -39.5t-1 -42.5l-4 -15v1q-1 -5 0.5 -18t-2.5 -15 l6 -12q-4 -6 -5 -13.5t-0.5 -17.5t-0.5 -15q-14 -37 -14 -49l-11 -18q-2 -3 -6 -7.5t-6.5 -9t-3.5 -10.5q-35 -38 -98 -86q-12 -8 -27.5 -15t-27 -10.5t-31 -10t-29.5 -9.5q-20 -9 -43 -12q-13 -4 -38.5 -4h-31.5q-11 -1 -31 1t-32 1z" />
<glyph unicode="K" horiz-adv-x="1048" d="M868 229q6 -13 47 -102q7 -14 22 -38t25.5 -44t16.5 -41q-4 0 -4 -8q-33 -14 -53 -4q-26 -10 -105 -0.5t-102 8.5q-11 16 -27.5 51t-28.5 51q0 5 -3.5 12t-4.5 11q-47 82 -119.5 242t-103.5 221l-18 -29q-18 -25 -19 -27l-2 -2q-2 -31 -2 -88q-2 -58 5 -214.5t-3 -221.5 q-3 -3 -8 -4t-6 -4q-14 0 -39 2t-37 2q-50 -4 -76 -2q-3 0 -7 1t-7 1t-5 -1t-5 -1q-7 0 -22 3.5t-23 2.5q-3 -1 -8 -4t-7.5 -3.5t-7.5 1.5q-3 63 1 183.5t1 181.5q-1 3 -0.5 138t0.5 136q1 16 1 33.5t-0.5 39t-0.5 33.5q0 5 -2 15t-2 18q4 62 4 92q-2 14 -2 43q-1 37 0 111 t0 111q0 13 1 36t1 31q-2 80 -2 223q9 6 22 10.5t23 6.5t26 4.5t23 3.5q48 4 72 -4q3 0 10 -2t10 -2q52 -5 68 -10l4 -215q1 -38 -1 -117t-1 -107q41 50 100 154q6 9 28.5 45.5t37.5 56.5q6 9 16 28.5t13 25.5q48 64 67 100q3 3 4 9t4 9q15 19 15 21q6 0 47 3t47 -1 q31 3 88 -3.5t78 -6.5q4 -14 8 -17q-1 -6 -5.5 -18t-4.5 -21q-8 -9 -18.5 -29.5t-14.5 -27.5l-18 -27l-15 -28l-16 -19q-7 -11 -41 -65.5t-57 -79.5q-4 -11 -16.5 -27.5t-14.5 -19.5q-3 -4 -8 -17q-1 -2 -11.5 -13t-15.5 -19q-3 -8 -20 -37q-2 -3 -8 -9.5t-10 -12t-7 -11.5 q-11 -15 -27.5 -45t-27.5 -45q11 -12 19.5 -28t18 -38.5t13.5 -31.5q67 -154 92 -207l47 -107q6 -14 21.5 -48t23.5 -56q14 -33 49 -101z" />
<glyph unicode="L" horiz-adv-x="890" d="M819 104q2 -36 -8 -75q-2 -4 -4 -13.5t-5 -15t-9 -8.5q-8 -2 -12.5 -2t-15.5 2.5t-15 3.5q-52 3 -111 0h-74q-16 -1 -66.5 -4.5t-74.5 -3.5q-93 0 -285 4q-1 1 2 14q-2 2 -4 2q-6 0 -8 2q-1 36 3 130.5t1 142.5q-6 54 -6 59q4 32 4 47v45l-8 84q0 12 3 37t3 41 q0 24 -1 75t-1 77q3 76 0 155q0 36 0.5 99.5t0.5 114.5t-1 95q-1 40 1.5 114t2.5 104q9 0 12 10q26 7 64 10q23 1 73 -1.5t64 -2.5q28 0 33 -8q3 -3 3 -6.5t-1.5 -9t-1.5 -9.5q0 -18 1.5 -58.5t1.5 -76t-3 -64.5q-1 -1 -0.5 -68.5t0.5 -68.5q1 -13 -0.5 -34t-1.5 -29 q0 -12 4.5 -76.5t-0.5 -81.5v-82q0 -11 -0.5 -27.5t-0.5 -29t1 -23.5l6 -51q0 -5 -1.5 -24t-0.5 -29q0 -12 4 -33t4 -33q0 -5 1 -15t1 -15q1 -23 -2 -126t2 -130q12 -3 27.5 -3.5t25.5 0t28.5 2t25.5 1.5q18 1 50.5 0t47.5 0q41 3 113 -2t92 -5q14 -74 16 -127z" />
<glyph unicode="M" horiz-adv-x="1351" d="M1227 211q-1 -23 0.5 -104.5t-2.5 -104.5q-83 -16 -103 -16q-32 -1 -137 12q-12 27 -12 102q-2 115 -2 346q0 26 -1 97t-1 104v141q-11 -28 -26.5 -85t-27.5 -85q-11 -50 -61 -188l-12 -49q-16 -49 -27 -98q-28 -92 -33 -113q-7 -3 -47 -8q-81 -10 -151 -2q-2 6 6 14 l-4 1q-4 1 -4 5q-14 62 -48.5 160t-46.5 145q-4 16 -24 80q-6 19 -8 31q-64 184 -72 205q-4 -17 -4 -74q0 -15 -3 -43t-3 -43q0 -101 10 -248q13 -282 0 -395q-5 -2 -6 -2t-4 2.5t-6 3.5q-8 0 -51 -8t-68 -4q-91 14 -111 14q-1 20 0.5 56.5t1.5 50.5q0 38 -4 104q0 13 1 40 t1 40q0 33 -3 98.5t-3 98.5q0 13 -1 43t-0.5 51.5t3.5 42.5q-3 63 -3 187t-3 190q0 7 1 27t1 32v53q0 6 4 10q-6 8 -6 54q0 19 -3 60t-3 63q0 86 2 127q4 3 7 3.5t8.5 -0.5t8.5 -1q29 0 99 12q10 1 21.5 1t26.5 -0.5t23 -0.5q16 1 31.5 -1t38.5 -7t31 -6q27 0 39 -5 q16 -47 14 -61q5 -4 10 -27q12 -33 11 -43q6 -10 10.5 -22t9 -30.5t6.5 -24.5q5 -19 33.5 -128t46.5 -167q6 -21 26 -88.5t32 -113.5t20 -91q15 40 20 59q31 106 37 141q0 3 2.5 4.5t1.5 4.5q-2 -2 -2 2l49 168q14 35 29 102.5t18 77.5q6 22 23 73t27 89t14 78q8 0 17.5 4.5 t15.5 5.5h6q1 0 8 2q14 2 43 2q5 0 16.5 2t16.5 2q56 3 108 -6q55 -3 97 -17q1 -21 -3 -67t-3 -70q0 -5 1.5 -13t1.5 -15t-3 -13q4 -17 5 -37.5t0.5 -33t-2 -39.5t-1.5 -35q0 -5 1 -16.5t1 -16.5q-2 -2 -2 -29q3 -53 1 -147t1 -135q3 -58 0 -163.5t0 -154.5q0 -8 1 -24.5 t1 -24.5q0 -9 -2 -22t-2.5 -19t2.5 -16q1 -3 3.5 -5t2.5 -5q0 -4 -3 -12.5t-3 -12.5q0 -15 3 -44t3 -44zM467 1366h-6q-1 0 -1 -3t1 -3q0 2 9 1q4 -1 1 3q-2 -2 -2 0zM479 1321q-4 4 -6 4l-1 -1q-2 -1 -1 -5q6 0 8 2z" />
<glyph unicode="N" horiz-adv-x="1095" d="M971 223q1 -27 -1.5 -105t1.5 -102q0 -2 -3.5 -6t-2.5 -8q-12 0 -89.5 -3t-87.5 1q-4 0 -33 3t-44 3q-9 29 -25 55q-13 38 -42 105t-42 102q-3 7 -13.5 29.5t-16 38t-9.5 33.5l-41 104q-14 37 -32 78.5t-42.5 92.5t-37.5 81q-1 1 -9.5 19.5t-9.5 29.5q-3 1 -10 21 q-1 -71 4 -422q0 -49 2 -74q0 -14 2 -39t2 -37q0 -9 -2 -27t-2 -26q-6 -51 -6 -156q-3 -1 -6.5 -0.5t-5 -0.5t-2.5 -5q-78 -27 -234 0q-5 11 -5.5 30.5t5.5 27.5q-4 9 -4 49q4 54 2 82q-1 7 -3.5 33.5t-2.5 39.5q-1 13 4 88q1 25 -1 73.5t-1 76.5v158q0 9 1.5 33.5t0.5 37.5 q-1 36 1.5 106.5t2.5 100.5q0 32 -1.5 113.5t-2 126.5t0 115t3.5 131q134 20 223 8q1 -3 2.5 -3.5t3.5 0t5 -0.5q7 -10 12.5 -21t11 -25t8.5 -22.5t9 -26.5l8 -24q22 -33 49 -104t37 -91q30 -67 71 -164q70 -187 144 -327l8 129q2 44 -2 135v274v56q0 7 -0.5 109t0.5 104 q145 24 244 -6q2 -47 2 -138q0 -24 1 -70t1 -69q-1 -16 -2.5 -44.5t-2.5 -52t-1 -44.5q3 -79 -1 -235.5t-1 -225.5v-111q5 -181 8 -217z" />
<glyph unicode="O" d="M860 627l3.5 -7t2.5 -8t-1 -7t-1 -7q0 -18 0.5 -68.5t0 -77t-2 -67t-6 -72.5t-12.5 -59q5 -27 -19 -82q-8 -13 -21 -30.5t-18 -24.5q-6 -8 -13.5 -15.5t-10.5 -10t-16 -11.5t-15 -10l-18 -17q-31 -18 -41 -22q-46 -25 -97 -37q-10 -2 -35 -8.5t-42 -9t-35 -1.5 q-6 1 -22 5t-25 4q-49 4 -54 6l-45 20q-19 13 -38 23l-37 24q-10 8 -31 28.5t-33 29.5l-26 37q-29 47 -39 79q-15 58 -17 99q0 15 -5.5 58.5t-2.5 70.5q0 24 2 26q0 9 1 38t1 38q0 4 -1 11t-1 10q-1 50 0.5 145.5t1.5 126.5v137q0 44 4 170v26t4 34q0 3 4 9.5t5 8.5 q10 37 26 53q4 6 9 11.5t12 11t10 8.5q2 2 12 13t13 14l12 12t14.5 13t14 10t16.5 10q12 6 50.5 21t57.5 28q8 1 31.5 5t34.5 5.5t32.5 4t36 3t34 -1t36.5 -4.5q13 -3 37 -15.5t37 -15.5l14 -4q23 -8 57.5 -30.5t45.5 -28.5q11 -12 20.5 -25.5t18 -30t13.5 -27t14 -31.5 t13 -29q23 -51 23 -177l4 -213q1 -14 1 -29.5t-0.5 -35t-0.5 -29.5q1 -13 -0.5 -55.5t2.5 -52.5zM610 412q4 22 4 92q-2 41 -2 100q-4 45 2 66q-6 18 -8.5 38.5t-3 57.5t-0.5 45q-1 13 0.5 64.5t-2.5 64.5q-1 15 0 54t0 59v55q-8 36 -35 63l-14 7q-2 2 -4.5 5.5t-5.5 4.5 q-1 1 -5.5 1t-5.5 1l-6 6q-13 8 -39 8q-74 -5 -104 -30q-14 -10 -31 -39q-4 -9 -5.5 -18t-1.5 -15t0.5 -19t0.5 -20q0 -48 -4 -227.5t0 -225.5q1 -16 3.5 -58.5t2.5 -60t-2 -59.5q-4 -112 33 -158q1 -3 1 -6t1 -4l27 -22q56 -13 102 -2t72 43q1 3 5 5t5 5q1 1 1 5t1 5 q1 3 3.5 5t2.5 3l4 17q1 2 2.5 5.5t2.5 5.5t1 3q4 9 2.5 35.5t-0.5 34.5z" />
<glyph unicode="P" horiz-adv-x="978" d="M864 1219q18 -55 21 -66q11 -96 2 -215q-12 -104 -25 -143q-18 -53 -22 -60q-13 -23 -56 -57l-61 -47q-76 -40 -160 -51q-26 -4 -56.5 -5t-69 -1t-56.5 -1q-8 -92 -8 -270v-123q-1 -28 0 -83.5t0 -84.5q-11 -2 -34.5 -8t-33.5 -8t-33.5 -5t-35.5 1q-20 1 -51 6t-50 6 q-11 60 -8 152q3 83 0 166q0 13 1 43t0.5 51.5t-3.5 42.5q-3 23 -3 48.5t1.5 56.5t1.5 48v136q0 22 3 63t3 61q0 62 -2 93q0 7 1 18t1 18q0 5 -1 16.5t-1 16.5q-1 20 1 60t1 59q-4 41 -2 59v60q0 12 -3 29.5t-3 25.5q0 10 0.5 31.5t0.5 39t-1 32.5q3 3 8 5t8 5q31 2 49 1.5 t55 -3.5t54 -4q1 0 56.5 2t56.5 -2q10 3 22.5 3t29 -1.5t25.5 -1.5h27.5t32.5 -4q3 0 8 -2.5t8 -2.5q6 -1 17 -1t20 -1t16 -4q61 -16 113 -37q25 -9 47 -28q9 -9 22.5 -27t18.5 -24q19 -24 21 -27q12 -17 26 -57zM641 1032q3 62 -43 137q-38 20 -103.5 22t-117.5 -5 q2 -47 -3 -175t5 -175q142 -25 223 18l19 27q2 2 2 20q1 3 3.5 6t2.5 6q4 9 4 50q3 13 8 69z" />
<glyph unicode="Q" horiz-adv-x="944" d="M860 399q0 -2 -4 -30q0 -9 1 -27t0.5 -30.5t-3.5 -24.5l1.5 -18t-3 -17.5t-5.5 -17.5t-6.5 -17t-6.5 -16q-13 -43 -37 -70q-11 -13 -46.5 -41.5t-48.5 -50.5q3 -7 6.5 -18.5t6.5 -18.5l14 -22q3 -7 7 -23t7 -23q66 -154 80 -192l-4 -16q-102 -12 -209 0q-3 6 -10 6 q-30 74 -76 168q-4 9 -16 39.5t-21 46.5q-37 -7 -94 4q-47 12 -57 16q-8 4 -20 5t-13 1q-3 1 -8 5.5t-8 5.5l-27 10l-4 4l-20 12q-12 6 -52 41q-26 26 -49 64t-37 84q-9 44 -12 90q-4 14 -1.5 50.5t1.5 45.5q-1 27 0.5 76.5t1.5 66.5v109q1 44 1 100t-0.5 125.5t-0.5 104.5 q0 34 4 104q0 3 1.5 14t0.5 17q0 7 -1 17.5t-1 17.5q1 5 4 15.5t2 16.5q35 77 37 84q28 48 88 94q17 17 37 27q31 13 74 23q15 7 39 10q35 8 135 4h28.5t32.5 -4q2 0 10.5 -3t11 -2.5t9.5 3.5q47 -14 125 -64q28 -16 59 -55q13 -18 23 -41q3 -7 12 -19.5t12 -19.5l7 -20 q5 -12 8 -51q0 -2 4 -19.5t4 -28.5q1 -17 0 -51.5t0 -54.5v-51q0 -14 -1 -54.5t-0.5 -71.5t3.5 -59q-4 -19 -4 -43t2 -54t2 -46q-2 -39 -2 -115q0 -21 3 -64t3 -63zM600 793q0 14 3 81.5t-1 75.5v41q0 3 -3 20t-3 25q0 9 1.5 37t0.5 43q-1 23 -4.5 29.5t-15.5 17.5 q-2 2 -5.5 6.5t-6 7t-5.5 3.5q-5 3 -20.5 6t-22.5 6q-10 2 -22 5t-17 4t-6 1q-37 2 -84 -18q-3 -2 -8 -4.5l-8 -4t-4 -4.5l-17 -22q-1 -4 0 -12.5t0 -12.5l-6 -18q-4 -15 -4 -76q0 -14 -2 -41t-2 -41q0 -23 2.5 -78t1.5 -82q0 -16 -1 -50t-1 -54q-2 0 -1 -58l1 -59 q-7 -54 -6.5 -136t18.5 -132q6 -6 13.5 -19t15.5 -18q32 -23 61 -26q45 -8 107 20q23 10 34 24.5t17 41.5q3 11 3 24.5t-1.5 30t-1.5 24.5q0 7 1 20t1 17q-4 77 -2 115v240z" />
<glyph unicode="R" horiz-adv-x="993" d="M225 -10q-68 10 -102 24q0 87 2 150q0 8 2.5 37.5t2 36.5t-2.5 38v52q2 43 2 135q0 27 1.5 83t1.5 106.5t-3 97.5q-1 25 2.5 72.5t3.5 68.5v113q4 110 4 188q0 33 -1.5 109.5t-0.5 121.5q1 2 3 5.5t3 6.5t0 7q47 6 152 6q229 0 360 -31q51 -13 72 -26q1 -3 5 0t7 0 q66 -44 111 -125q5 -22 27 -62q13 -50 14 -59q5 -8 3 -56t-1 -59q4 -36 2 -55q-3 -63 -18 -125q-12 -54 -35 -92q-36 -54 -97 -103q-31 -31 -45 -37q32 -111 50 -145q13 -51 36 -115l39 -112q28 -67 60 -172q2 -6 8 -19.5t7.5 -18.5t3.5 -18.5t-3 -19.5q-78 -25 -168 -4 q-9 2 -36 8.5t-42 7.5q-26 86 -59 180q-7 22 -18.5 63.5t-18.5 61.5q-38 117 -70 211q-15 34 -16 49q-14 -5 -39.5 -5t-44.5 5q-11 -170 -8 -301q0 -4 -1 -12t-1 -12q4 -109 2 -160v-55q-1 -6 -5.5 -16.5t-4.5 -18.5q-52 -20 -146 -10zM391 926q-4 -70 2 -90q46 -1 85 -0.5 t75.5 8.5t60.5 24q5 5 8 11.5t4.5 11t3 15t3.5 16.5q6 33 6 92q-1 13 0 42t-0.5 49t-7.5 34q-10 22 -39 37q-36 16 -119 12q-10 -1 -24 -1t-31.5 0.5t-26.5 0.5q0 -24 0.5 -78t0.5 -100.5t-1 -83.5zM156 1427q-1 -3 -4 -5q2 -1 4 -1q0 1 1 2q3 4 -1 4z" />
<glyph unicode="S" horiz-adv-x="946" d="M842 1194q18 -79 18 -86q2 -35 1.5 -52.5t-3.5 -54t-4 -55.5q-20 -8 -80 -8q-9 0 -26.5 -1t-26.5 -1h-51q-3 0 -6.5 2t-6.5 2q-8 2 -20 3.5t-20 4t-15 8.5q-1 12 1.5 55.5t-1.5 59.5q-1 5 -4 22t-4.5 23.5t-5.5 18t-10 20.5q-16 26 -37 35h-21q-4 1 -10.5 3.5t-10 4 t-10.5 3t-11 1.5h-13q-2 0 -35 -10q-5 -2 -16 -5.5t-15.5 -5t-11.5 -5.5t-12 -9q-6 -4 -10.5 -9.5t-9 -14t-7.5 -13.5q-8 -43 10 -102q12 -34 64 -98q4 -4 11 -14.5t11 -14.5q3 -4 11.5 -10.5t11.5 -9.5q10 -8 31 -27.5t34 -28.5q53 -35 91 -73q8 -3 14.5 -8.5t14.5 -15 t12 -13.5q11 -11 30 -28.5t31 -29.5q44 -44 61 -77q11 -9 23.5 -39t15.5 -35q2 -6 8 -15.5t7 -15.5q1 -5 1 -15.5t1 -15.5q0 -4 3 -11t3 -11q2 -14 2 -39q-1 -33 1 -41.5t-4 -37t-7 -33.5t-8.5 -31t-8.5 -31q-14 -43 -20 -53q-3 -5 -11.5 -14.5t-11.5 -14.5l-10 -14l-12 -13 q-3 -3 -4 -8t-4 -8l-9 -6q-30 -30 -49 -35q-28 -16 -37 -25q-3 0 -9.5 -2.5t-10.5 -1.5q-18 -8 -34.5 -12t-42.5 -6.5t-36 -3.5q-3 0 -6 -2t-6 -2q-2 0 -10 1.5t-11 0.5q-12 0 -43 -1t-47 -1q-3 0 -10.5 -1t-12 -0.5t-7.5 3.5h-17q-6 2 -21 5.5t-24.5 6.5t-20.5 9t-16 14 q-10 -3 -20 6q-10 4 -19.5 12.5t-11.5 13.5q-9 1 -19.5 9t-15.5 10q0 3 -1.5 5t-2.5 3t0 2q-14 8 -29 33.5t-24 34.5q1 3 0 5t0 5q-14 22 -20.5 46.5t-11.5 66t-7 53.5q0 6 2 8q-13 61 4 143q34 12 72 13.5t91.5 -3.5t74.5 -6q2 -2 4.5 -5.5t5.5 -4.5q0 -11 -0.5 -42 t-0.5 -46.5t2 -42t6 -42t12 -33t20 -27.5q6 -2 30.5 -11.5t41 -12.5t34.5 1q13 3 25.5 8t24 14t18.5 15t19 18t16 15q27 68 -25 174q-22 30 -78 74t-77 69q-3 0 -4.5 1.5t-4.5 2.5q-5 7 -19.5 18.5t-19.5 18.5q-12 2 -16 17q-26 15 -31 28q-10 3 -17 8.5t-14.5 15 t-11.5 13.5q-21 17 -26 23l-21 16q-7 7 -24 21t-25 22l-18 16q-7 7 -16.5 23.5t-16.5 23.5q-40 75 -37 162q0 3 -2 9.5t-2 9.5v47q1 9 3.5 26t4.5 27.5t5.5 24.5t8.5 26q0 11 3 21t9 23t9 20q2 3 7.5 13t8.5 15q5 6 20 22t21 26l19 16q44 38 116 65l54 19q22 6 71 10 q16 2 48 2l77 -6q28 -2 70 -20q4 -6 11.5 -11t18.5 -9.5t15 -6.5q19 -10 46 -36t38 -34q58 -77 74 -141z" />
<glyph unicode="T" horiz-adv-x="980" d="M909 1376q9 -40 9 -80q-2 -42 -29 -102q-2 -4 -14.5 -1t-14.5 3q-15 3 -32.5 3t-41 -1.5t-36.5 -1.5h-84h-29q-3 1 -7.5 3t-6 1.5l-7.5 -2.5q-4 -19 -5 -41.5t-0.5 -36t2 -41.5t1.5 -39q0 -16 -2 -46.5t-2 -45.5q0 -11 2 -34.5t2 -36.5q0 -22 -6 -103q5 -5 4.5 -38 t-0.5 -38q0 -3 2 -8t2 -8q3 -17 3 -37.5t-1.5 -46t-1.5 -39.5q0 -21 -1 -62t-1 -61v-108v-117q0 -38 -4 -107.5t-4 -107.5q-13 -1 -43 -6.5t-47 -5.5q-1 0 -3 1t-3 1q-18 -2 -26 -2t-28 2.5l-28 3.5q-49 4 -72 18q4 0 2 108t-2 113q0 35 4.5 105t4.5 108q0 40 -1.5 119.5 t-1.5 120.5q0 16 -3 120t1 120q3 31 2.5 88.5t2.5 89.5q1 12 3 33t1.5 28t-2.5 33q-23 1 -48.5 1t-58 -0.5t-51.5 -0.5q-11 0 -35 2t-35 2q-45 0 -63 8q-16 57 -12 121.5t24 118.5q10 4 80 0t86 -4q48 -1 230 0.5t233 -2.5q56 -6 151 -2q3 0 9.5 3.5t9.5 2.5q7 0 14.5 -28.5 t7.5 -39.5z" />
<glyph unicode="U" d="M631 8l-37 -6q-98 -22 -191 -10q-26 2 -73 14q-12 5 -49 23q-7 5 -25 13t-25 13t-20.5 20t-26.5 23q-8 11 -26.5 34t-30 41.5t-18.5 39.5q-2 8 -6.5 22.5t-7 26.5t-3.5 23q-8 63 -8 151q0 1 6 70q0 11 -3 33.5t-3 40t6 28.5q-4 1 -5 5.5t0 16t1 13.5q0 33 -1.5 90.5 t-1.5 108.5t3 106q3 47 3 101t-1.5 120t-1.5 101q4 114 0 149q1 2 4.5 6t3.5 9l94 16q28 3 80.5 -4t67.5 -8q10 -10 7 -43.5t1 -44.5q-4 -3 -2.5 -11.5t-1.5 -11.5q4 -20 4 -62.5v-52.5q0 -14 0.5 -39t0.5 -46t-1 -40q0 -34 1 -114.5t1 -126.5l-6 -252q-1 -38 4 -182 q0 -9 -0.5 -27.5t-0.5 -28t2 -23.5t7 -26q20 -51 78 -63q47 -7 55 -6q1 0 19 6q3 1 9 1t9 1q22 5 44 19t28 30q3 4 4 9t1 12t1 10q9 31 0 49q5 37 0 166q-2 51 -2 164l1 3q1 2 1.5 4t-0.5 3.5t-4 1.5q0 3 3 2q1 0 1 1v3q0 32 1 69.5t2.5 83.5t2.5 72v139q0 27 -1 79.5 t-1 82.5q0 5 2 15.5t2 15.5t-1 14.5t-1 14.5l4 123q20 9 54 12q46 5 53 4q57 17 141 -12q1 -2 1 -6t1 -6t4 -3q3 -58 -3 -159.5t-3 -155.5q2 -39 2 -115q0 -41 -1 -115t-1 -112q0 -19 1.5 -62t1 -77t-4.5 -66q5 -16 1 -81t-3 -85q5 -68 4 -84q-1 -2 -2 -7t-3 -11t-5 -12 q-3 -10 -8 -39.5t-9 -44.5q-1 -2 -3.5 -6t-2.5 -7q-1 -1 -1 -5t-1 -7l-12 -16q-24 -40 -45 -56q-32 -32 -39 -37q-3 -3 -12 -6t-13 -6q-3 -3 -10 -7.5t-10 -6.5l-25 -10zM100 1421q0 3 -2 3.5t-4 0t-2 -1.5q2 -2 8 -2z" />
<glyph unicode="V" horiz-adv-x="1046" d="M981 1425q0 -7 -5.5 -43t-11 -69t-6.5 -33q-9 -26 -19.5 -75.5t-16.5 -69.5q-19 -68 -29 -152q-13 -83 -64 -297q-7 -33 -24.5 -106t-24.5 -113l-10 -57l-6 -33q-6 -33 -29 -129q-25 -124 -28 -146l-17 -55q-14 -53 -14 -55q-24 0 -98.5 -5.5t-127.5 -2.5t-88 20 q-13 37 -26.5 106.5t-20.5 94.5q-11 40 -25 116.5t-16 86.5q-8 39 -23.5 105.5t-21.5 96.5l-16 99q-3 15 -11.5 46t-11.5 48q-1 5 -3.5 27.5t-10.5 31.5q0 30 -16 84q2 19 -13 84q-8 25 -16.5 69t-11.5 56l-19 66q-4 35 -10 53q-27 125 -29 147q30 24 72 27q82 10 186 -18 q61 -265 78 -355q4 -33 11 -55q4 -17 9 -46t7 -40q8 -36 21 -103t18 -92q3 -11 14.5 -52t16.5 -64q5 -19 13 -57t13 -58q22 71 55 235q8 45 28 122.5t26 107.5q8 45 27.5 125.5t23.5 97.5q33 163 53 234q85 25 162 14q22 -3 43 -12q38 -5 43 -7z" />
<glyph unicode="W" horiz-adv-x="1478" d="M1300 1436h17q35 0 94 -9q3 -22 -2 -30q-3 -67 -22.5 -189t-24.5 -164v-24.5t-4 -30.5q0 -18 -7.5 -62.5t-9.5 -58.5q-4 -27 -17 -99.5t-17 -115.5q-3 -28 -8 -58.5t-12.5 -66t-10.5 -55.5q-14 -79 -19 -98q-20 -79 -36 -193l-7 -49q-8 -21 -8 -65q-4 -11 -8 -37t-12 -39 q-2 0 -6.5 -1t-7 -0.5t-5.5 3.5q-3 0 -26.5 -3t-38.5 -3h-107q-4 0 -25 -0.5t-29 0t-22.5 3t-25.5 7.5q-3 0 -7 -1t-7 -1q-1 8 -7.5 26.5t-7.5 30.5l-4 39l-6 27q-41 269 -45 315q-15 68 -31.5 202.5t-32.5 201.5q-5 -8 -8 -28t-8 -28q-3 -12 -5 -34t-5 -31q-6 -18 -6 -19 q-3 -13 -8 -77q-1 -10 -15 -84q-1 -7 -1 -18.5t-1 -16.5q-3 -14 -7 -43t-7 -43q-27 -123 -39 -207q-19 -138 -39 -213q-16 2 -22.5 2t-22.5 -2.5t-23 -3.5q-16 -4 -43.5 -4h-33.5q-9 0 -25.5 -1.5t-30 -1.5t-24.5 3q-12 1 -24.5 3.5t-28.5 6.5t-27 6q-5 5 -6.5 13.5 t2.5 13.5q-8 41 -21 122t-18 109l-15 80q-29 186 -30 188q-3 17 -7.5 48.5t-7.5 48.5q-11 49 -28 184q-1 0 2 10q-15 70 -31 197q-4 34 -19 105.5t-20 101.5l-29 194l7 15l53 10q3 0 8 2t8 2q26 4 56.5 0.5t70 -11.5t53.5 -10q13 -118 31 -210q9 -39 19 -108.5t16 -100.5 q7 -41 19.5 -123t19.5 -123q3 -14 11 -55t11.5 -62.5t7.5 -55t5 -61.5q6 10 10 37l43 244l4 43q3 26 14.5 84.5t14.5 89.5q9 82 22 162q5 24 10.5 68.5t6.5 54.5q3 20 11.5 59t12.5 62q49 10 154 10q43 0 110 -23q4 -9 7 -47q0 -14 2.5 -29.5t7 -37.5t6.5 -31q3 -16 6 -46.5 t6 -45.5q14 -56 29 -172q2 -17 7.5 -76t10.5 -88l13 -70l43 -264q8 18 13.5 40.5t7 38.5t4 44.5t3.5 40.5q4 32 9.5 66.5t14 80t13.5 72.5q2 12 8 31q2 31 13 88l12 88q2 14 9.5 49t10.5 57q7 36 18.5 106.5t18.5 106.5l11 6q12 0 36 4.5t37 4.5q5 0 16 -1.5t20 -1.5t15 3z " />
<glyph unicode="X" horiz-adv-x="1034" d="M698 -10q0 6 -6 6q-69 151 -90 194q-14 29 -39.5 95.5t-42.5 99.5q-24 -59 -54 -124t-66.5 -142t-55.5 -119q-97 -20 -235 -10q-4 0 -9 1t-8 1q-4 0 -4 2q-2 0 -8.5 -1.5t-10.5 0t-8 7.5q2 14 7.5 28.5t10 24t14 26.5t13.5 25q24 54 41 86q10 21 39 80t43 90l39 91l41 86 q14 27 36.5 87t39.5 89q-9 19 -26.5 55.5t-31.5 66.5t-24 58q-9 23 -29.5 69t-29.5 70q-3 8 -10.5 22.5t-10.5 22.5l-39 90l-41 93l-59 137q-2 4 -8.5 13.5t-8 14t0.5 15.5q116 11 268 0q9 -9 10 -9q2 -1 6 -1q-3 -10 6 -25l164 -387q36 71 92 212t72 179q1 3 0.5 6t0 6 t3.5 4q31 19 76 19q30 2 90 -2l86 -8q3 0 10.5 1.5t10.5 0.5q13 -8 10 -33l-8 -25l-11 -24l-18 -43q-23 -49 -68.5 -137t-60.5 -119q-6 -19 -24 -58.5t-23 -60.5q-3 -1 -5 -8t-5 -8q-1 -10 -4.5 -19t-10 -20.5t-8.5 -14.5q-12 -26 -36 -75t-36 -76q16 -46 37.5 -98 t49.5 -115.5t42 -98.5q12 -33 35 -77q27 -73 31 -80q15 -30 41 -90t29 -66q8 -23 34 -67q13 -13 7 -23q-36 -6 -87.5 -8t-92.5 -1.5t-83 -0.5z" />
<glyph unicode="Y" horiz-adv-x="1032" d="M963 1436q3 -3 4.5 -6t2 -6.5t0.5 -7t-1 -8.5l-1.5 -7.5t-3 -8.5t-3.5 -8t-3.5 -8.5t-3.5 -7.5l-6 -10q-6 -19 -10 -25q-10 -25 -57 -133l-15 -24q-1 -3 -9.5 -29.5t-14.5 -40.5q-12 -22 -29 -66t-27 -65q-25 -54 -108 -260q-4 -9 -13 -29t-15.5 -35t-10.5 -33 q-1 -35 2.5 -140.5t-0.5 -141.5q-4 -98 -4 -152q0 -14 3.5 -95t-1.5 -89q-4 -3 -9 -3.5t-11 0.5t-9 1q-14 -1 -51 -6.5t-59 -5.5l-60 4q-45 5 -55 10q0 55 2 88q0 16 2 46t2 46l-6 56q-7 155 4 397l-51 119q-8 40 -31 84q-74 161 -137 340q-10 33 -37.5 90t-34.5 73 q-15 47 -37 84q5 5 9 17q134 10 245 0q15 -3 27 0q26 -67 92 -262q25 -78 31 -91q7 -18 25.5 -57.5t25.5 -60.5q14 27 36 77t32 70l8 27q29 67 106 291q84 14 265 2z" />
<glyph unicode="Z" horiz-adv-x="913" d="M375 240q86 -8 236 -7t229 -2q19 -76 2 -180q0 -2 -1.5 -17.5t-3.5 -25t-6 -12.5t-13.5 -3.5t-24 0.5t-17.5 1q-49 5 -176 10h-104q-32 -1 -94.5 -1t-114 -1t-94.5 -4q-32 -4 -66 -4q-49 0 -57 8q-6 7 -7.5 23t0 39.5t0.5 33.5v74v27l19 37q5 13 49 110q13 27 38 75.5 t34 67.5l104 216l17 36q3 7 10 16.5t10 16.5q16 30 42.5 94t43.5 95q5 8 13 25.5t10 21.5l45 90q4 8 10 24.5t10 24.5q3 6 9.5 16t10 19.5t3.5 19.5q-53 4 -240 4q-18 0 -52 1.5t-62 1.5t-52 -3q-2 0 -17 -1t-24.5 0t-17.5 5q-1 16 -8.5 61.5t-6.5 69.5q1 13 6 44t5 49 l14 14q0 2 4 2l2 -2q67 0 194.5 -4.5t184.5 -5.5q62 -3 186.5 -1t186.5 -1q8 -14 4 -41q-6 -114 -2 -142q-12 -21 -66 -131q-10 -25 -34.5 -66t-32.5 -61q-3 -3 -4 -6.5t-1 -7.5t-1 -6l-43 -92l-41 -94q-13 -34 -43.5 -94.5t-42.5 -88.5q-11 -30 -21 -47q-2 -3 -20 -45 q-14 -23 -34.5 -68.5t-31.5 -66.5l-12 -23q-3 -3 -4 -10.5t-4 -11.5q-3 -7 -10.5 -22.5t-11.5 -24.5t-8 -23t-5 -26z" />
<glyph unicode="[" horiz-adv-x="509" d="M446 1683l11 -10q0 -12 2.5 -57t-0.5 -72.5t-13 -54.5q-21 -4 -69 -4t-68 -4q0 -45 -14 -213q-4 -25 -1.5 -94t1.5 -91q-3 -72 -3 -202.5t-1 -161.5q-1 -34 0.5 -96t1.5 -82q-1 -25 1.5 -97.5t-1.5 -97.5q-3 -58 0.5 -191t-0.5 -198q90 -4 141 -12q6 -53 2 -158 q-3 -27 -12 -45q-21 0 -63 -2t-66 -2q-138 4 -176 8q-4 0 -10 -0.5t-10 -1t-9 0.5t-10 3q-3 52 -3.5 100t0.5 113t1 94q0 8 -1 25t-1 29q-1 35 2 108.5t2 114.5q-6 116 0 235v121q6 70 2 223q0 19 1 58t1 59v260q0 35 -4 105q0 194 8 290q8 8 22 12.5t23 5.5t31 2t26 1 q11 0 30.5 -1t31.5 -1q29 0 92.5 -2.5t95.5 -1.5q3 -1 4 -3t1 -6t1 -6z" />
<glyph unicode="\" horiz-adv-x="899" d="M815 14q2 -2 7 -4.5t5.5 -4t-0.5 -7.5q-2 -4 -8.5 -6.5t-16.5 -3t-18 -1t-20.5 0t-15.5 0.5q-17 1 -48.5 5t-47 5t-40.5 -2q-6 5 -10 17t-6 14q-7 16 -18.5 50t-18.5 50q-22 64 -49 135l-27 66q-25 63 -75 207q-53 157 -103 270q-38 86 -53 127l-49 133l-15 35 q-4 11 -17 49.5t-21 58.5q-7 18 -28 65t-30 75l-10 41q-12 28 -6 43q39 14 137 10q11 -1 33.5 -5.5t34.5 -4.5l34 -89q5 -16 18.5 -40.5t18.5 -40.5q25 -78 29 -93l33 -86q74 -213 125 -350l8 -16q3 -10 6.5 -20t8 -22l7.5 -20l4 -20l11 -21l30 -71q16 -38 70 -199 q32 -74 33 -100q3 -1 4.5 -0.5t2 0t1.5 -3.5q26 -73 90 -226z" />
<glyph unicode="]" horiz-adv-x="507" d="M440 1690q-3 -44 -3 -95.5t1.5 -118.5t1.5 -106q0 -87 -4 -205q0 -35 -3 -211t-3 -268q0 -30 4 -108v-119q0 -39 -2 -113t-2 -110v-203q0 -30 2.5 -108t1.5 -118q0 -5 -1.5 -15t-1.5 -18.5t3 -15.5q-10 -10 -10 -14q-231 -15 -338 -4q-24 28 -20 106q0 5 -1.5 16.5 t-1.5 16.5l7 35v17.5t4 19.5q26 5 66.5 4.5t72.5 1.5q1 28 5 80t5 76q-2 -4 -5 -2.5t-5 0.5q3 6 10 6v190q0 33 -4 103q-1 1 -0.5 51t0.5 51q-4 28 -4 43v150q0 21 -0.5 59t-0.5 70t1 61q2 43 2 133q0 162 6 236q4 83 -2 125q3 18 1.5 55t2.5 51q-18 3 -35.5 3.5t-44.5 -0.5 t-41 -1q0 4 -5 5l-5 1q-28 47 -2 158q5 22 10 25q-4 11 0 16q41 10 166 3t166 -5q0 -7 6 -10z" />
<glyph unicode="^" horiz-adv-x="1040" d="M285 774q-117 -9 -222 0q-3 3 -3.5 6.5t0 6.5t-0.5 6q76 133 107 200q3 1 5 3.5t3 2.5q23 51 86 164q7 12 22 39.5t23 42t21.5 35t25.5 37.5q1 9 17 35q21 42 61 88q3 -3 5.5 -3.5t5 0t5.5 -0.5q3 0 4.5 2.5t4.5 1.5q33 4 143 4q2 -3 12.5 -16t14.5 -21q28 -43 106 -199 l8 -10q17 -22 45 -73t45 -74q-1 -3 0 -4.5t0 -4.5q16 -23 41 -67t31 -53q7 -12 22.5 -38t26.5 -46.5t19 -38.5q0 -5 3 -12.5t3 -12.5q-24 -4 -46.5 -6t-49 -1t-43 2t-50 3.5t-49.5 3.5q0 3 -1 6t-1 6q-5 9 -24.5 47t-28.5 53.5t-25 42.5t-30 48q-13 21 -37.5 56.5t-43 65.5 t-32.5 60q-6 -3 -9 -11.5t-5 -10.5q-9 -9 -13 -21q-2 -4 -6.5 -13.5t-9 -16.5t-10.5 -11q-3 -20 -23 -47q-8 -23 -32 -63l-37 -58q-9 -13 -26 -34t-29.5 -40t-18.5 -40q-4 -1 -5 -4l-1 -3q0 4 -2 -1q-1 -5 -2 -13z" />
<glyph unicode="_" horiz-adv-x="854" d="M627 -168q-1 0 -4.5 1.5t-5.5 2.5t-5 0.5t-6 -2.5q-16 4 -59 4h-53q-4 0 -12.5 -2t-12.5 -2h-63q-36 1 -76.5 1t-88.5 -0.5t-71 -0.5q-35 -2 -50 -2t-51 2.5t-55 3.5q-10 19 -12 42t2 63.5t4 48.5q8 4 55 8h201q46 1 134 -0.5t116 -1.5q53 0 84 -2q22 -1 158 4q6 0 23 1 t27 0.5t17 -5.5q6 5 16.5 4.5t14.5 -6.5q0 -7 -8 -10q0 -14 -1.5 -66.5t-0.5 -85.5q-64 -4 -90 2q-12 -4 -37 -3.5t-37 -2.5q-6 5 -28 4.5t-25 -0.5z" />
<glyph unicode="`" horiz-adv-x="344" d="M123 1655q-15 22 -42.5 65.5t-43.5 65.5q-24 34 -37 67q2 1 5.5 3.5t5 3t5.5 -1.5q19 4 43.5 5.5t41 1.5t45 -0.5t38.5 -0.5q20 0 35 6h2q40 -74 49 -98q19 -28 39.5 -86t30.5 -78q-1 -2 0.5 -6.5t2 -6.5t-2.5 -4q3 -1 -2 -2q-7 -1 -8 -2q-3 -1 -7 -1t-7 1t-3 2 q-16 -3 -38.5 -3.5t-54 0.5t-40.5 1q-3 0 -1 -2.5t-1 -3.5q-3 6 -10 8q0 4 -2.5 8t-7 8t-6.5 7q-7 12 -29 43z" />
<glyph unicode="a" horiz-adv-x="1034" d="M961 57l4 -28q1 -3 3.5 -8.5t2.5 -8t-2 -8.5q-165 -11 -244 -6q-7 7 -10 8q-1 17 -4 32t-9 33.5t-8 28.5l-14 56t-15 65t-10 58q-56 3 -147.5 -2t-130.5 -5q-5 -21 -26.5 -122t-39.5 -152q-160 -13 -241 -2q-6 5 -2 27q8 38 26 161q9 34 12 66q5 24 13.5 72.5t13.5 72.5 l21 76q0 19 12 51q2 17 8 69t10 79l17 63l6 35q1 3 5 10.5t4.5 10l2 10t-1.5 10.5q1 3 4 5t4 5q3 27 15.5 93t17.5 98q2 22 14 53q0 20 11 53q6 10 10 37q3 19 8 57.5t8 55.5l6 28q3 10 8 39.5t9 44.5q1 6 3.5 17t4.5 18t5.5 16t8.5 15q110 21 303 2q3 0 5.5 -3.5t5.5 -2.5 q5 -41 39 -195l10 -65l16 -60q4 -17 41 -190q12 -62 39 -181t39 -184q10 -48 20 -114q3 -17 14 -48.5t15 -46.5q4 -17 18 -88.5t23 -109.5l10 -52zM420 530q43 -2 63 -1.5t61.5 3t57.5 3.5q-45 224 -53 256q-3 12 -21 69t-18 84q-26 -144 -90 -414z" />
<glyph unicode="b" horiz-adv-x="1015" d="M221 2q-9 0 -24 -1.5t-26 -1.5t-19 3q-4 1 -12 5t-13 5q3 48 1 142.5t1 148.5q0 12 -1 37t-1 39t-1.5 58t-0.5 71q6 123 6 389q0 45 -1 136t-1 136q0 27 1.5 84t1 100.5t-4.5 82.5q26 3 66.5 3.5t102 -0.5t83.5 -1q22 -1 59.5 1.5t53.5 2.5q140 3 237 -51q47 -29 59 -39 q13 -13 25 -33q30 -44 43 -76l18 -43q4 -16 19 -123q13 -95 -23 -194q-27 -88 -86 -144l50 -43q3 -3 12 -10t13.5 -11t10 -11t9.5 -13q1 -1 16 -37q1 -2 11 -21.5t14 -33.5l4 -39l4 -43q0 -13 3 -36t3 -35l-6 -35q0 -1 -1 -14t-5 -19q0 -51 -35 -127q-1 -3 -9.5 -23.5 t-12 -28t-11.5 -21t-16 -23.5q-6 -9 -16 -18t-18 -15t-20.5 -15.5t-17.5 -13.5q-2 -5 -5.5 -9t-10 -6.5t-9.5 -3.5t-13.5 -3.5t-12.5 -3.5q-7 -6 -16.5 -9.5t-24 -5.5t-21.5 -4q-37 -6 -80 -6q-17 0 -52 1.5t-62.5 1.5t-46.5 -3q-8 0 -28 -1t-32 -1q-44 -2 -131 2zM672 455 v32q0 22 -9 46.5t-20 35.5q-10 10 -39.5 19.5t-48.5 7.5q-5 0 -15.5 -1t-15.5 -1q-19 0 -45.5 1.5t-45.5 1t-44 -4.5q-4 -61 -1.5 -184.5t1.5 -165.5q119 -11 180 0q31 5 47 11.5t27 22.5q21 28 23 37q8 13 4 49q0 13 1 45t1 48zM383 1192q-1 -17 1.5 -60.5t-1.5 -58.5 q3 -9 0 -22q8 -105 0 -211q17 0 51 -2t61.5 -2t49.5 4q18 4 32.5 11.5t32.5 21t23 16.5q4 21 4 108q0 7 1 18.5t1 18.5q0 40 -2 56q-1 12 -7 35t-7 36q-9 11 -22 19t-30.5 12t-32.5 6t-39.5 1.5t-38 -1.5l-40.5 -3t-37 -3z" />
<glyph unicode="c" d="M862 489q1 -11 1 -23t-0.5 -28.5t-0.5 -27.5q0 -9 1 -29t1 -29t-3 -27.5t-3 -27.5q-3 -56 -22 -98l-35 -64q-10 -18 -25 -32t-40 -30.5t-36 -25.5q-40 -28 -75 -37q-50 -13 -86 -20h-25.5t-28.5 -4q-17 3 -51 4t-51 4q-1 0 -21.5 1t-31.5 5q-60 16 -88 41q-24 20 -31 22 q-22 33 -57 68q-3 10 -8 19.5t-12.5 19.5t-10.5 16q-5 7 -10 31q-11 18 -13 29q-3 7 -4 15.5t-1 21.5t-1 20q0 11 -2 33t-2 33q-2 1 -1 32.5t1 32.5v68q-4 7 0 64.5t4 64.5q-1 20 -6 76t-4 84q0 7 1 18t1 18v17q0 3 2 7t2 7q0 7 -1 18.5t-1 18.5q0 124 4 158v40t4 48 q12 52 21 84q18 68 43 96q2 11 7.5 19.5t17.5 17t18 12t24 12.5l70 39q5 2 20.5 9.5t27.5 12t26 7.5q14 2 41 2q51 6 145 -6q12 -3 34 -4t34 -4q6 -2 24.5 -11t28.5 -10q3 -5 8.5 -9.5t9.5 -7.5t10.5 -7t10.5 -7q1 0 3 -4t5 -8q3 -3 7 -4t7 -4l17 -18l14 -19q17 -20 45 -59 q48 -98 37 -309q-12 -7 -37 -7q-8 -1 -40.5 -4.5t-55.5 -3.5q-47 0 -68 4q-5 1 -15 3.5l-14 3.5t-9 3.5t-9 6.5q0 7 2 42.5t2 49.5t-3 37.5t-9 40.5q-3 4 -5 12.5t-5 11.5q-13 24 -58 37.5t-84 5.5q-16 -2 -49 -16q-7 -4 -17.5 -15.5t-17.5 -15.5q-15 -27 -18 -59t1.5 -83 t4.5 -73q0 -51 -2.5 -170t-1.5 -182q4 -94 4 -133q0 -10 -0.5 -33t-0.5 -35.5t1.5 -31t5.5 -35.5q10 -50 64 -76q7 -1 24.5 -5t26 -5t22 0t25.5 6q4 1 8.5 4t10.5 7.5t10 6.5q45 23 53 35q3 4 4.5 14.5t5.5 14.5q-2 15 5 66t-1 75l4 20q65 30 162 21q8 -1 25.5 -5t25.5 -5 q26 0 33 -7z" />
<glyph unicode="d" horiz-adv-x="985" d="M903 784v-75q0 -31 -1.5 -103t-0.5 -110q2 -31 -2 -97q0 -4 -1 -15t-0.5 -17t5.5 -11q-3 -89 -51 -188q-21 -39 -50 -68.5t-73 -64.5l-63 -21q-7 -1 -22.5 -1t-22.5 -1q-3 0 -10.5 -1t-10.5 -1l-74 -4l-186 -10q-94 0 -137 2q-7 1 -20.5 0t-20.5 0q-2 1 -3.5 3t-2.5 3 t-2.5 2t-3.5 0.5t-7 -0.5q-6 43 -10 115q-1 5 0.5 12t1.5 10q0 8 -1 25t-1 25q0 67 4 215q0 13 -1 41.5t-1 44.5t-1 45t-1 45q0 5 3.5 33.5t-1.5 33.5q0 3 -1 8.5t-1 8.5q-1 4 -1 9.5t0.5 12.5t0.5 12v115q0 18 -1.5 79t-0.5 93q4 112 -4 191v41q-1 22 2.5 99t-0.5 105 q1 2 7.5 6.5t6.5 8.5q158 9 349 -4q48 0 71 -2q66 -13 94 -11q12 -7 37.5 -18.5t36.5 -18.5q3 -1 7 -5t7 -5q4 -3 21 -10.5t25 -15.5q20 -14 47 -56l22 -37q4 -12 11 -36t10 -35q15 -63 16 -74q4 -39 0 -162q0 -1 6 -166zM635 285l16 53q10 68 -2 168q2 27 2.5 34t-2 33.5 t-2.5 36.5q0 8 1.5 29.5t0.5 34.5q-2 23 -2 63q4 24 1.5 94.5t-1.5 94.5q0 18 2 58.5t2.5 66t-5 57.5t-19.5 53q-16 22 -47 33l-19 8q-18 8 -78.5 3t-83.5 -3q-4 -32 -2.5 -121.5t0.5 -109.5v-78q0 -21 -2 -66t-2 -69t1 -71.5t1 -68.5q0 -23 2.5 -85t1.5 -97 q-1 -21 0.5 -97.5t-2.5 -100.5q16 -3 49 -3.5t46 -3.5q68 3 122 31q15 8 21 23z" />
<glyph unicode="e" horiz-adv-x="997" d="M897 252q23 -110 4 -176q4 -14 -2 -44t-6 -32q-12 -9 -19 4l-253 4q-40 1 -113.5 -5t-106.5 -7q-40 -3 -80 -3.5t-95 0.5t-79 1q-3 3 -8 5t-8 5q-3 41 -3 121.5t-3 120.5q-1 19 0 59.5t0 59.5q-4 58 0 235q1 2 1 8t3 10q-3 4 -3 9t1.5 11t1.5 9q0 13 -2 37t-2 35 q-2 23 -2 63q-5 44 2 62q-1 26 0.5 131.5t-2.5 138.5q0 2 -2 4v6h2q2 100 2 297q10 7 10 15q98 8 270.5 5.5t272.5 0.5q32 1 90.5 -1.5t81.5 -2.5q4 0 14.5 1t18 0.5t14.5 -3.5q0 -2 0.5 -5.5t1.5 -10t2 -11.5q7 -35 8 -37q0 -12 0.5 -35t0.5 -35t-1.5 -30t-5.5 -35 q0 -31 -10 -61q-10 -3 -20.5 -3t-21.5 1.5t-17 1.5h-107q-18 0 -51 2t-49 2h-244q0 -21 2 -23v-4q0 -22 -4 -72l-2 -2q0 -19 -2.5 -61.5t-3 -65.5t3 -56t12.5 -58q26 0 80.5 2t98.5 2t77 -4q10 3 20.5 3.5t25.5 -0.5t22 -1q3 0 9 -1t9 -1t14.5 1t20 0.5t14.5 -3.5 q26 -124 4 -238q-14 -2 -43 -2q-101 4 -151 2q0 -4 -2 -2q-28 3 -60 3t-73 -1.5t-66 -1.5q-14 -234 -4 -344q43 0 192 -4.5t224 -1.5q14 0 26 6q7 -3 25 -2t25 -2q12 9 20 4z" />
<glyph unicode="f" horiz-adv-x="987" d="M891 1438q8 -55 8 -133q0 -6 -2.5 -20.5t-1.5 -22.5q0 -3 2 -8.5t2 -8.5q1 -13 -2.5 -34t-3.5 -25q-36 0 -120 3.5t-132 2.5q-11 0 -30 -1t-31 -1q-128 4 -191 -2q-8 -52 -1 -172t3 -172q47 3 167 -2t163 -2q8 0 18.5 1t16.5 1.5t12.5 -1.5t11.5 -7q22 -63 8 -150 q-6 -25 -10 -80q-46 4 -99 5t-86.5 0.5t-102 -2t-97.5 -1.5q-8 -38 -8 -137q0 -88 2 -131q0 -49 2 -72q4 -92 2 -133q-6 -105 -6 -113q-1 -4 -2 -8.5t-1.5 -6.5t-0.5 -3q-146 -28 -240 0q-3 9 -12 12q-3 23 0 71t0 73q-6 11 -2 99.5t4 104.5q1 25 3 66.5t3 76t0 66.5 q-2 41 -2 119q-1 36 0 109t0 110q-1 22 -3.5 71.5t-2.5 70t2 67.5q3 43 3.5 94.5t-0.5 124t-1 99.5q1 2 3 2.5t3.5 0.5t3 1t0.5 4q135 0 207 -2h82q38 4 62 -2q65 4 327 4q52 0 70 -6z" />
<glyph unicode="g" horiz-adv-x="946" d="M854 963q-57 -8 -83.5 -8t-86 4.5t-80.5 5.5q12 164 -43 221q-4 4 -8 7t-10 5.5t-9.5 4.5t-11.5 4t-11.5 3t-13 3.5t-12.5 3.5q-44 -12 -61 -19q-29 -9 -49 -29q-18 -12 -26 -28.5t-9 -46.5v-103q0 -32 -4 -98q-1 -23 0.5 -64t1.5 -49q-1 -18 -1 -38.5t0.5 -45t0.5 -37.5 q0 -20 -2 -55.5t-2 -52.5q0 -166 12 -229q5 -22 20 -45.5t31 -30.5q30 -13 64 -13q5 -1 35 5q64 16 90 55q18 53 22 69q1 17 -1.5 47.5t-2.5 43.5q0 9 1 31t0.5 37.5t-3.5 29.5q-19 -1 -61.5 -1t-61.5 -1q-24 125 10 221q11 4 11 10q15 1 44.5 0t45.5 0q18 1 48.5 -0.5 t41.5 -1.5q136 -5 178 0q3 -3 2 -7q-1 -1 2 -1q1 -44 -5 -148t-3 -171q3 -52 4 -157.5t4 -162.5q1 -18 -2 -51.5t-2 -48.5l4 -21q-2 -2 -7.5 -5.5t-8.5 -8.5q-75 -11 -127 10q0 -5 -4 -6q-2 0 -4 2q-8 8 -12.5 34.5t-10.5 37.5q-5 -8 -13 -14.5t-13.5 -9t-19 -7t-17.5 -6.5 q-3 -1 -37.5 -18t-52.5 -23q-49 -12 -111 -12q-60 0 -113 24q-3 0 -1 2q-1 2 -3 2v-2q-4 0 -15 4.5t-18 5.5q-47 31 -92 89q-6 8 -19 24.5t-21 26.5t-17 25.5t-14 29.5q-12 30 -12 79.5t-7 67.5q-1 66 -1 197t-1 205q-1 41 -3 106t-3 116.5t0 94.5q1 10 1 29.5t0.5 32t3 29 t5.5 28.5l12 33q3 5 6.5 16.5t6.5 16.5l26 37q3 5 9.5 12.5t10.5 13.5t7 12q6 3 13 11t10 10q12 7 50.5 31t67 36t60.5 17q119 13 172 8q7 -1 18.5 -5t18.5 -5l28 -6q40 -13 60 -15q3 -5 6.5 -7t11.5 -4.5t12 -4.5q45 -26 88 -94q35 -53 50 -109q16 -47 18 -61q9 -65 0 -127 q-1 -6 0.5 -27t-2.5 -26z" />
<glyph unicode="h" horiz-adv-x="1064" d="M381 1421q-1 -22 -6 -91.5t-4 -110.5q4 -101 12 -201q7 -69 4 -178q45 3 90 3.5t109 -0.5t94 -1q14 320 6 581q96 33 246 4q6 -15 -4 -32q3 -40 1 -121.5t1 -124.5q3 -62 4 -135.5t1 -168.5t1 -147v-151q0 -13 -1 -37t-1 -37q1 -11 1 -23.5t-0.5 -26.5t-0.5 -22v-29 t4 -36q0 -3 2 -9.5t2 -9.5q1 -7 1 -21.5t1 -21.5q0 -24 -1 -76t-1 -77v-125q-8 -6 -17.5 -7t-23 1t-20.5 2q-18 0 -53.5 -1.5t-67.5 -1.5t-62 3q-2 2 -4.5 7.5t-7.5 6.5q-3 12 -3.5 24t0.5 28t1 24q1 24 0 68t0 65q4 88 0 371q-88 -2 -287 2q-3 -18 -3.5 -63.5t-4.5 -67.5 q0 -25 1 -93t1 -112q0 -27 -2 -77.5t-2 -70.5q1 -7 3.5 -23t2.5 -22t-2 -20q-3 -8 -6 -8q9 -9 6 -33q-10 -3 -10 -8q-119 -9 -236 0q-3 8 -8 8q-13 280 -8 375q0 13 3 37t3 36q0 14 -1 40t-1 40q4 36 4 56q-3 52 -2 158t-2 159q-4 109 2 164q4 22 1.5 79.5t-1.5 76.5 q0 9 2 26.5t2 26.5q0 6 1 74.5t-5 83.5q7 0 18 3t15 3q3 1 7 0t5 0q0 3 6.5 4t18 1t16.5 1q49 4 90 -4q54 -4 70 -17z" />
<glyph unicode="i" horiz-adv-x="524" d="M135 719q0 42 0.5 116.5t0.5 130t-1 99.5q0 45 0.5 119.5t0.5 131.5t-1 105q6 0 10 13q65 8 166 8q58 0 72 -8q3 -32 4 -70t1 -66t-0.5 -74t-0.5 -71q2 -72 2 -225q0 -9 -1.5 -26t-1.5 -30.5t3 -23.5q1 -3 3.5 -5t2.5 -5q1 -4 1 -10t-0.5 -13t-0.5 -10v-27q0 -12 1 -32.5 t1 -28.5q-4 -16 -4 -23v-67q0 -23 -4.5 -137.5t0.5 -143.5l8 -86q6 -131 0 -260q-6 -5 -14.5 -7.5t-15 -3t-18 -1t-17.5 -0.5q-67 -10 -129 -2q-6 0 -17 0.5t-17 1t-13.5 3t-12.5 7.5q-6 106 -2 364q1 47 0 106t-3 134t-3 117z" />
<glyph unicode="j" horiz-adv-x="991" d="M422 -6q-72 0 -133 24l-117 78q-1 4 -4 8.5t-7.5 9.5t-6.5 7q-3 4 -7.5 14.5t-7.5 14.5q-21 37 -36 94.5t-15 109.5q0 7 3 50t-1 53q-5 110 -4 143q1 1 4.5 5t3.5 5t2 6.5t0 8.5q3 0 25.5 2.5t28 3t26 2.5t29 2t26.5 0.5t28.5 -0.5t25 -2.5t26.5 -4.5t23 -7 q4 -25 5.5 -58.5t0.5 -60.5t0 -60q0 -10 1 -22t2.5 -26t2.5 -23q11 -80 29 -107q8 -3 21.5 -10t24 -11t21.5 -5q90 -10 129 41q3 3 5.5 10t5.5 10q8 10 12 23q1 3 1 9t1 9q0 2 3 7t3 9q1 13 -0.5 39t-1.5 35q4 176 0 236v125q0 39 1 123t0.5 142.5t-3.5 117.5q-28 3 -101 2 t-114 2q-43 3 -68 10q-25 56 -10 168q2 9 5.5 35t8.5 36q0 3 3 4.5t4 4.5t-1 5q-1 2 0 2l3 1q1 1 1 2q-1 1 -0.5 1.5t3.5 0.5q13 1 36 -0.5t31 -1.5q35 -3 72 0q24 1 65 -1.5t56 -2.5q39 1 123 -3t133 -3q0 -8 8 -11q1 -37 1 -117t1 -120q0 -16 4 -48t4 -48q0 -8 -1 -25 t-1 -25l-6 -45q0 -17 4 -53q2 -72 2 -194q0 -5 -1 -17.5t-0.5 -21t3.5 -15.5q-3 0 -3 -2.5t-3 -1.5q3 -3 3.5 -4t-0.5 -3t-1 -5q5 -61 0 -76q3 -7 3 -16.5t-1.5 -23t-1.5 -21.5q0 -10 1 -37t0.5 -47.5t-3.5 -38.5q-1 -12 -1 -39.5t-1 -42.5l-4 -15v1q-1 -5 0.5 -18t-2.5 -15 l6 -12q-4 -6 -5 -13.5t-0.5 -17.5t-0.5 -15q-14 -37 -14 -49l-11 -18q-2 -3 -6 -7.5t-6.5 -9t-3.5 -10.5q-35 -38 -98 -86q-12 -8 -27.5 -15t-27 -10.5t-31 -10t-29.5 -9.5q-20 -9 -43 -12q-13 -4 -38.5 -4h-31.5q-11 -1 -31 1t-32 1z" />
<glyph unicode="k" horiz-adv-x="1048" d="M868 229q6 -13 47 -102q7 -14 22 -38t25.5 -44t16.5 -41q-4 0 -4 -8q-33 -14 -53 -4q-26 -10 -105 -0.5t-102 8.5q-11 16 -27.5 51t-28.5 51q0 5 -3.5 12t-4.5 11q-47 82 -119.5 242t-103.5 221l-18 -29q-18 -25 -19 -27l-2 -2q-2 -31 -2 -88q-2 -58 5 -214.5t-3 -221.5 q-3 -3 -8 -4t-6 -4q-14 0 -39 2t-37 2q-50 -4 -76 -2q-3 0 -7 1t-7 1t-5 -1t-5 -1q-7 0 -22 3.5t-23 2.5q-3 -1 -8 -4t-7.5 -3.5t-7.5 1.5q-3 63 1 183.5t1 181.5q-1 3 -0.5 138t0.5 136q1 16 1 33.5t-0.5 39t-0.5 33.5q0 5 -2 15t-2 18q4 62 4 92q-2 14 -2 43q-1 37 0 111 t0 111q0 13 1 36t1 31q-2 80 -2 223q9 6 22 10.5t23 6.5t26 4.5t23 3.5q48 4 72 -4q3 0 10 -2t10 -2q52 -5 68 -10l4 -215q1 -38 -1 -117t-1 -107q41 50 100 154q6 9 28.5 45.5t37.5 56.5q6 9 16 28.5t13 25.5q48 64 67 100q3 3 4 9t4 9q15 19 15 21q6 0 47 3t47 -1 q31 3 88 -3.5t78 -6.5q4 -14 8 -17q-1 -6 -5.5 -18t-4.5 -21q-8 -9 -18.5 -29.5t-14.5 -27.5l-18 -27l-15 -28l-16 -19q-7 -11 -41 -65.5t-57 -79.5q-4 -11 -16.5 -27.5t-14.5 -19.5q-3 -4 -8 -17q-1 -2 -11.5 -13t-15.5 -19q-3 -8 -20 -37q-2 -3 -8 -9.5t-10 -12t-7 -11.5 q-11 -15 -27.5 -45t-27.5 -45q11 -12 19.5 -28t18 -38.5t13.5 -31.5q67 -154 92 -207l47 -107q6 -14 21.5 -48t23.5 -56q14 -33 49 -101z" />
<glyph unicode="l" horiz-adv-x="890" d="M819 104q2 -36 -8 -75q-2 -4 -4 -13.5t-5 -15t-9 -8.5q-8 -2 -12.5 -2t-15.5 2.5t-15 3.5q-52 3 -111 0h-74q-16 -1 -66.5 -4.5t-74.5 -3.5q-93 0 -285 4q-1 1 2 14q-2 2 -4 2q-6 0 -8 2q-1 36 3 130.5t1 142.5q-6 54 -6 59q4 32 4 47v45l-8 84q0 12 3 37t3 41 q0 24 -1 75t-1 77q3 76 0 155q0 36 0.5 99.5t0.5 114.5t-1 95q-1 40 1.5 114t2.5 104q9 0 12 10q26 7 64 10q23 1 73 -1.5t64 -2.5q28 0 33 -8q3 -3 3 -6.5t-1.5 -9t-1.5 -9.5q0 -18 1.5 -58.5t1.5 -76t-3 -64.5q-1 -1 -0.5 -68.5t0.5 -68.5q1 -13 -0.5 -34t-1.5 -29 q0 -12 4.5 -76.5t-0.5 -81.5v-82q0 -11 -0.5 -27.5t-0.5 -29t1 -23.5l6 -51q0 -5 -1.5 -24t-0.5 -29q0 -12 4 -33t4 -33q0 -5 1 -15t1 -15q1 -23 -2 -126t2 -130q12 -3 27.5 -3.5t25.5 0t28.5 2t25.5 1.5q18 1 50.5 0t47.5 0q41 3 113 -2t92 -5q14 -74 16 -127z" />
<glyph unicode="m" horiz-adv-x="1351" d="M1227 211q-1 -23 0.5 -104.5t-2.5 -104.5q-83 -16 -103 -16q-32 -1 -137 12q-12 27 -12 102q-2 115 -2 346q0 26 -1 97t-1 104v141q-11 -28 -26.5 -85t-27.5 -85q-11 -50 -61 -188l-12 -49q-16 -49 -27 -98q-28 -92 -33 -113q-7 -3 -47 -8q-81 -10 -151 -2q-2 6 6 14 l-4 1q-4 1 -4 5q-14 62 -48.5 160t-46.5 145q-4 16 -24 80q-6 19 -8 31q-64 184 -72 205q-4 -17 -4 -74q0 -15 -3 -43t-3 -43q0 -101 10 -248q13 -282 0 -395q-5 -2 -6 -2t-4 2.5t-6 3.5q-8 0 -51 -8t-68 -4q-91 14 -111 14q-1 20 0.5 56.5t1.5 50.5q0 38 -4 104q0 13 1 40 t1 40q0 33 -3 98.5t-3 98.5q0 13 -1 43t-0.5 51.5t3.5 42.5q-3 63 -3 187t-3 190q0 7 1 27t1 32v53q0 6 4 10q-6 8 -6 54q0 19 -3 60t-3 63q0 86 2 127q4 3 7 3.5t8.5 -0.5t8.5 -1q29 0 99 12q10 1 21.5 1t26.5 -0.5t23 -0.5q16 1 31.5 -1t38.5 -7t31 -6q27 0 39 -5 q16 -47 14 -61q5 -4 10 -27q12 -33 11 -43q6 -10 10.5 -22t9 -30.5t6.5 -24.5q5 -19 33.5 -128t46.5 -167q6 -21 26 -88.5t32 -113.5t20 -91q15 40 20 59q31 106 37 141q0 3 2.5 4.5t1.5 4.5q-2 -2 -2 2l49 168q14 35 29 102.5t18 77.5q6 22 23 73t27 89t14 78q8 0 17.5 4.5 t15.5 5.5h6q1 0 8 2q14 2 43 2q5 0 16.5 2t16.5 2q56 3 108 -6q55 -3 97 -17q1 -21 -3 -67t-3 -70q0 -5 1.5 -13t1.5 -15t-3 -13q4 -17 5 -37.5t0.5 -33t-2 -39.5t-1.5 -35q0 -5 1 -16.5t1 -16.5q-2 -2 -2 -29q3 -53 1 -147t1 -135q3 -58 0 -163.5t0 -154.5q0 -8 1 -24.5 t1 -24.5q0 -9 -2 -22t-2.5 -19t2.5 -16q1 -3 3.5 -5t2.5 -5q0 -4 -3 -12.5t-3 -12.5q0 -15 3 -44t3 -44zM467 1366h-6q-1 0 -1 -3t1 -3q0 2 9 1q4 -1 1 3q-2 -2 -2 0zM479 1321q-4 4 -6 4l-1 -1q-2 -1 -1 -5q6 0 8 2z" />
<glyph unicode="n" horiz-adv-x="1095" d="M971 223q1 -27 -1.5 -105t1.5 -102q0 -2 -3.5 -6t-2.5 -8q-12 0 -89.5 -3t-87.5 1q-4 0 -33 3t-44 3q-9 29 -25 55q-13 38 -42 105t-42 102q-3 7 -13.5 29.5t-16 38t-9.5 33.5l-41 104q-14 37 -32 78.5t-42.5 92.5t-37.5 81q-1 1 -9.5 19.5t-9.5 29.5q-3 1 -10 21 q-1 -71 4 -422q0 -49 2 -74q0 -14 2 -39t2 -37q0 -9 -2 -27t-2 -26q-6 -51 -6 -156q-3 -1 -6.5 -0.5t-5 -0.5t-2.5 -5q-78 -27 -234 0q-5 11 -5.5 30.5t5.5 27.5q-4 9 -4 49q4 54 2 82q-1 7 -3.5 33.5t-2.5 39.5q-1 13 4 88q1 25 -1 73.5t-1 76.5v158q0 9 1.5 33.5t0.5 37.5 q-1 36 1.5 106.5t2.5 100.5q0 32 -1.5 113.5t-2 126.5t0 115t3.5 131q134 20 223 8q1 -3 2.5 -3.5t3.5 0t5 -0.5q7 -10 12.5 -21t11 -25t8.5 -22.5t9 -26.5l8 -24q22 -33 49 -104t37 -91q30 -67 71 -164q70 -187 144 -327l8 129q2 44 -2 135v274v56q0 7 -0.5 109t0.5 104 q145 24 244 -6q2 -47 2 -138q0 -24 1 -70t1 -69q-1 -16 -2.5 -44.5t-2.5 -52t-1 -44.5q3 -79 -1 -235.5t-1 -225.5v-111q5 -181 8 -217z" />
<glyph unicode="o" d="M860 627l3.5 -7t2.5 -8t-1 -7t-1 -7q0 -18 0.5 -68.5t0 -77t-2 -67t-6 -72.5t-12.5 -59q5 -27 -19 -82q-8 -13 -21 -30.5t-18 -24.5q-6 -8 -13.5 -15.5t-10.5 -10t-16 -11.5t-15 -10l-18 -17q-31 -18 -41 -22q-46 -25 -97 -37q-10 -2 -35 -8.5t-42 -9t-35 -1.5 q-6 1 -22 5t-25 4q-49 4 -54 6l-45 20q-19 13 -38 23l-37 24q-10 8 -31 28.5t-33 29.5l-26 37q-29 47 -39 79q-15 58 -17 99q0 15 -5.5 58.5t-2.5 70.5q0 24 2 26q0 9 1 38t1 38q0 4 -1 11t-1 10q-1 50 0.5 145.5t1.5 126.5v137q0 44 4 170v26t4 34q0 3 4 9.5t5 8.5 q10 37 26 53q4 6 9 11.5t12 11t10 8.5q2 2 12 13t13 14l12 12t14.5 13t14 10t16.5 10q12 6 50.5 21t57.5 28q8 1 31.5 5t34.5 5.5t32.5 4t36 3t34 -1t36.5 -4.5q13 -3 37 -15.5t37 -15.5l14 -4q23 -8 57.5 -30.5t45.5 -28.5q11 -12 20.5 -25.5t18 -30t13.5 -27t14 -31.5 t13 -29q23 -51 23 -177l4 -213q1 -14 1 -29.5t-0.5 -35t-0.5 -29.5q1 -13 -0.5 -55.5t2.5 -52.5zM610 412q4 22 4 92q-2 41 -2 100q-4 45 2 66q-6 18 -8.5 38.5t-3 57.5t-0.5 45q-1 13 0.5 64.5t-2.5 64.5q-1 15 0 54t0 59v55q-8 36 -35 63l-14 7q-2 2 -4.5 5.5t-5.5 4.5 q-1 1 -5.5 1t-5.5 1l-6 6q-13 8 -39 8q-74 -5 -104 -30q-14 -10 -31 -39q-4 -9 -5.5 -18t-1.5 -15t0.5 -19t0.5 -20q0 -48 -4 -227.5t0 -225.5q1 -16 3.5 -58.5t2.5 -60t-2 -59.5q-4 -112 33 -158q1 -3 1 -6t1 -4l27 -22q56 -13 102 -2t72 43q1 3 5 5t5 5q1 1 1 5t1 5 q1 3 3.5 5t2.5 3l4 17q1 2 2.5 5.5t2.5 5.5t1 3q4 9 2.5 35.5t-0.5 34.5z" />
<glyph unicode="p" horiz-adv-x="978" d="M864 1219q18 -55 21 -66q11 -96 2 -215q-12 -104 -25 -143q-18 -53 -22 -60q-13 -23 -56 -57l-61 -47q-76 -40 -160 -51q-26 -4 -56.5 -5t-69 -1t-56.5 -1q-8 -92 -8 -270v-123q-1 -28 0 -83.5t0 -84.5q-11 -2 -34.5 -8t-33.5 -8t-33.5 -5t-35.5 1q-20 1 -51 6t-50 6 q-11 60 -8 152q3 83 0 166q0 13 1 43t0.5 51.5t-3.5 42.5q-3 23 -3 48.5t1.5 56.5t1.5 48v136q0 22 3 63t3 61q0 62 -2 93q0 7 1 18t1 18q0 5 -1 16.5t-1 16.5q-1 20 1 60t1 59q-4 41 -2 59v60q0 12 -3 29.5t-3 25.5q0 10 0.5 31.5t0.5 39t-1 32.5q3 3 8 5t8 5q31 2 49 1.5 t55 -3.5t54 -4q1 0 56.5 2t56.5 -2q10 3 22.5 3t29 -1.5t25.5 -1.5h27.5t32.5 -4q3 0 8 -2.5t8 -2.5q6 -1 17 -1t20 -1t16 -4q61 -16 113 -37q25 -9 47 -28q9 -9 22.5 -27t18.5 -24q19 -24 21 -27q12 -17 26 -57zM641 1032q3 62 -43 137q-38 20 -103.5 22t-117.5 -5 q2 -47 -3 -175t5 -175q142 -25 223 18l19 27q2 2 2 20q1 3 3.5 6t2.5 6q4 9 4 50q3 13 8 69z" />
<glyph unicode="q" horiz-adv-x="944" d="M860 399q0 -2 -4 -30q0 -9 1 -27t0.5 -30.5t-3.5 -24.5l1.5 -18t-3 -17.5t-5.5 -17.5t-6.5 -17t-6.5 -16q-13 -43 -37 -70q-11 -13 -46.5 -41.5t-48.5 -50.5q3 -7 6.5 -18.5t6.5 -18.5l14 -22q3 -7 7 -23t7 -23q66 -154 80 -192l-4 -16q-102 -12 -209 0q-3 6 -10 6 q-30 74 -76 168q-4 9 -16 39.5t-21 46.5q-37 -7 -94 4q-47 12 -57 16q-8 4 -20 5t-13 1q-3 1 -8 5.5t-8 5.5l-27 10l-4 4l-20 12q-12 6 -52 41q-26 26 -49 64t-37 84q-9 44 -12 90q-4 14 -1.5 50.5t1.5 45.5q-1 27 0.5 76.5t1.5 66.5v109q1 44 1 100t-0.5 125.5t-0.5 104.5 q0 34 4 104q0 3 1.5 14t0.5 17q0 7 -1 17.5t-1 17.5q1 5 4 15.5t2 16.5q35 77 37 84q28 48 88 94q17 17 37 27q31 13 74 23q15 7 39 10q35 8 135 4h28.5t32.5 -4q2 0 10.5 -3t11 -2.5t9.5 3.5q47 -14 125 -64q28 -16 59 -55q13 -18 23 -41q3 -7 12 -19.5t12 -19.5l7 -20 q5 -12 8 -51q0 -2 4 -19.5t4 -28.5q1 -17 0 -51.5t0 -54.5v-51q0 -14 -1 -54.5t-0.5 -71.5t3.5 -59q-4 -19 -4 -43t2 -54t2 -46q-2 -39 -2 -115q0 -21 3 -64t3 -63zM600 793q0 14 3 81.5t-1 75.5v41q0 3 -3 20t-3 25q0 9 1.5 37t0.5 43q-1 23 -4.5 29.5t-15.5 17.5 q-2 2 -5.5 6.5t-6 7t-5.5 3.5q-5 3 -20.5 6t-22.5 6q-10 2 -22 5t-17 4t-6 1q-37 2 -84 -18q-3 -2 -8 -4.5l-8 -4t-4 -4.5l-17 -22q-1 -4 0 -12.5t0 -12.5l-6 -18q-4 -15 -4 -76q0 -14 -2 -41t-2 -41q0 -23 2.5 -78t1.5 -82q0 -16 -1 -50t-1 -54q-2 0 -1 -58l1 -59 q-7 -54 -6.5 -136t18.5 -132q6 -6 13.5 -19t15.5 -18q32 -23 61 -26q45 -8 107 20q23 10 34 24.5t17 41.5q3 11 3 24.5t-1.5 30t-1.5 24.5q0 7 1 20t1 17q-4 77 -2 115v240z" />
<glyph unicode="r" horiz-adv-x="993" d="M225 -10q-68 10 -102 24q0 87 2 150q0 8 2.5 37.5t2 36.5t-2.5 38v52q2 43 2 135q0 27 1.5 83t1.5 106.5t-3 97.5q-1 25 2.5 72.5t3.5 68.5v113q4 110 4 188q0 33 -1.5 109.5t-0.5 121.5q1 2 3 5.5t3 6.5t0 7q47 6 152 6q229 0 360 -31q51 -13 72 -26q1 -3 5 0t7 0 q66 -44 111 -125q5 -22 27 -62q13 -50 14 -59q5 -8 3 -56t-1 -59q4 -36 2 -55q-3 -63 -18 -125q-12 -54 -35 -92q-36 -54 -97 -103q-31 -31 -45 -37q32 -111 50 -145q13 -51 36 -115l39 -112q28 -67 60 -172q2 -6 8 -19.5t7.5 -18.5t3.5 -18.5t-3 -19.5q-78 -25 -168 -4 q-9 2 -36 8.5t-42 7.5q-26 86 -59 180q-7 22 -18.5 63.5t-18.5 61.5q-38 117 -70 211q-15 34 -16 49q-14 -5 -39.5 -5t-44.5 5q-11 -170 -8 -301q0 -4 -1 -12t-1 -12q4 -109 2 -160v-55q-1 -6 -5.5 -16.5t-4.5 -18.5q-52 -20 -146 -10zM391 926q-4 -70 2 -90q46 -1 85 -0.5 t75.5 8.5t60.5 24q5 5 8 11.5t4.5 11t3 15t3.5 16.5q6 33 6 92q-1 13 0 42t-0.5 49t-7.5 34q-10 22 -39 37q-36 16 -119 12q-10 -1 -24 -1t-31.5 0.5t-26.5 0.5q0 -24 0.5 -78t0.5 -100.5t-1 -83.5zM156 1427q-1 -3 -4 -5q2 -1 4 -1q0 1 1 2q3 4 -1 4z" />
<glyph unicode="s" horiz-adv-x="946" d="M842 1194q18 -79 18 -86q2 -35 1.5 -52.5t-3.5 -54t-4 -55.5q-20 -8 -80 -8q-9 0 -26.5 -1t-26.5 -1h-51q-3 0 -6.5 2t-6.5 2q-8 2 -20 3.5t-20 4t-15 8.5q-1 12 1.5 55.5t-1.5 59.5q-1 5 -4 22t-4.5 23.5t-5.5 18t-10 20.5q-16 26 -37 35h-21q-4 1 -10.5 3.5t-10 4 t-10.5 3t-11 1.5h-13q-2 0 -35 -10q-5 -2 -16 -5.5t-15.5 -5t-11.5 -5.5t-12 -9q-6 -4 -10.5 -9.5t-9 -14t-7.5 -13.5q-8 -43 10 -102q12 -34 64 -98q4 -4 11 -14.5t11 -14.5q3 -4 11.5 -10.5t11.5 -9.5q10 -8 31 -27.5t34 -28.5q53 -35 91 -73q8 -3 14.5 -8.5t14.5 -15 t12 -13.5q11 -11 30 -28.5t31 -29.5q44 -44 61 -77q11 -9 23.5 -39t15.5 -35q2 -6 8 -15.5t7 -15.5q1 -5 1 -15.5t1 -15.5q0 -4 3 -11t3 -11q2 -14 2 -39q-1 -33 1 -41.5t-4 -37t-7 -33.5t-8.5 -31t-8.5 -31q-14 -43 -20 -53q-3 -5 -11.5 -14.5t-11.5 -14.5l-10 -14l-12 -13 q-3 -3 -4 -8t-4 -8l-9 -6q-30 -30 -49 -35q-28 -16 -37 -25q-3 0 -9.5 -2.5t-10.5 -1.5q-18 -8 -34.5 -12t-42.5 -6.5t-36 -3.5q-3 0 -6 -2t-6 -2q-2 0 -10 1.5t-11 0.5q-12 0 -43 -1t-47 -1q-3 0 -10.5 -1t-12 -0.5t-7.5 3.5h-17q-6 2 -21 5.5t-24.5 6.5t-20.5 9t-16 14 q-10 -3 -20 6q-10 4 -19.5 12.5t-11.5 13.5q-9 1 -19.5 9t-15.5 10q0 3 -1.5 5t-2.5 3t0 2q-14 8 -29 33.5t-24 34.5q1 3 0 5t0 5q-14 22 -20.5 46.5t-11.5 66t-7 53.5q0 6 2 8q-13 61 4 143q34 12 72 13.5t91.5 -3.5t74.5 -6q2 -2 4.5 -5.5t5.5 -4.5q0 -11 -0.5 -42 t-0.5 -46.5t2 -42t6 -42t12 -33t20 -27.5q6 -2 30.5 -11.5t41 -12.5t34.5 1q13 3 25.5 8t24 14t18.5 15t19 18t16 15q27 68 -25 174q-22 30 -78 74t-77 69q-3 0 -4.5 1.5t-4.5 2.5q-5 7 -19.5 18.5t-19.5 18.5q-12 2 -16 17q-26 15 -31 28q-10 3 -17 8.5t-14.5 15 t-11.5 13.5q-21 17 -26 23l-21 16q-7 7 -24 21t-25 22l-18 16q-7 7 -16.5 23.5t-16.5 23.5q-40 75 -37 162q0 3 -2 9.5t-2 9.5v47q1 9 3.5 26t4.5 27.5t5.5 24.5t8.5 26q0 11 3 21t9 23t9 20q2 3 7.5 13t8.5 15q5 6 20 22t21 26l19 16q44 38 116 65l54 19q22 6 71 10 q16 2 48 2l77 -6q28 -2 70 -20q4 -6 11.5 -11t18.5 -9.5t15 -6.5q19 -10 46 -36t38 -34q58 -77 74 -141z" />
<glyph unicode="t" horiz-adv-x="980" d="M909 1376q9 -40 9 -80q-2 -42 -29 -102q-2 -4 -14.5 -1t-14.5 3q-15 3 -32.5 3t-41 -1.5t-36.5 -1.5h-84h-29q-3 1 -7.5 3t-6 1.5l-7.5 -2.5q-4 -19 -5 -41.5t-0.5 -36t2 -41.5t1.5 -39q0 -16 -2 -46.5t-2 -45.5q0 -11 2 -34.5t2 -36.5q0 -22 -6 -103q5 -5 4.5 -38 t-0.5 -38q0 -3 2 -8t2 -8q3 -17 3 -37.5t-1.5 -46t-1.5 -39.5q0 -21 -1 -62t-1 -61v-108v-117q0 -38 -4 -107.5t-4 -107.5q-13 -1 -43 -6.5t-47 -5.5q-1 0 -3 1t-3 1q-18 -2 -26 -2t-28 2.5l-28 3.5q-49 4 -72 18q4 0 2 108t-2 113q0 35 4.5 105t4.5 108q0 40 -1.5 119.5 t-1.5 120.5q0 16 -3 120t1 120q3 31 2.5 88.5t2.5 89.5q1 12 3 33t1.5 28t-2.5 33q-23 1 -48.5 1t-58 -0.5t-51.5 -0.5q-11 0 -35 2t-35 2q-45 0 -63 8q-16 57 -12 121.5t24 118.5q10 4 80 0t86 -4q48 -1 230 0.5t233 -2.5q56 -6 151 -2q3 0 9.5 3.5t9.5 2.5q7 0 14.5 -28.5 t7.5 -39.5z" />
<glyph unicode="u" d="M631 8l-37 -6q-98 -22 -191 -10q-26 2 -73 14q-12 5 -49 23q-7 5 -25 13t-25 13t-20.5 20t-26.5 23q-8 11 -26.5 34t-30 41.5t-18.5 39.5q-2 8 -6.5 22.5t-7 26.5t-3.5 23q-8 63 -8 151q0 1 6 70q0 11 -3 33.5t-3 40t6 28.5q-4 1 -5 5.5t0 16t1 13.5q0 33 -1.5 90.5 t-1.5 108.5t3 106q3 47 3 101t-1.5 120t-1.5 101q4 114 0 149q1 2 4.5 6t3.5 9l94 16q28 3 80.5 -4t67.5 -8q10 -10 7 -43.5t1 -44.5q-4 -3 -2.5 -11.5t-1.5 -11.5q4 -20 4 -62.5v-52.5q0 -14 0.5 -39t0.5 -46t-1 -40q0 -34 1 -114.5t1 -126.5l-6 -252q-1 -38 4 -182 q0 -9 -0.5 -27.5t-0.5 -28t2 -23.5t7 -26q20 -51 78 -63q47 -7 55 -6q1 0 19 6q3 1 9 1t9 1q22 5 44 19t28 30q3 4 4 9t1 12t1 10q9 31 0 49q5 37 0 166q-2 51 -2 164l1 3q1 2 1.5 4t-0.5 3.5t-4 1.5q0 3 3 2q1 0 1 1v3q0 32 1 69.5t2.5 83.5t2.5 72v139q0 27 -1 79.5 t-1 82.5q0 5 2 15.5t2 15.5t-1 14.5t-1 14.5l4 123q20 9 54 12q46 5 53 4q57 17 141 -12q1 -2 1 -6t1 -6t4 -3q3 -58 -3 -159.5t-3 -155.5q2 -39 2 -115q0 -41 -1 -115t-1 -112q0 -19 1.5 -62t1 -77t-4.5 -66q5 -16 1 -81t-3 -85q5 -68 4 -84q-1 -2 -2 -7t-3 -11t-5 -12 q-3 -10 -8 -39.5t-9 -44.5q-1 -2 -3.5 -6t-2.5 -7q-1 -1 -1 -5t-1 -7l-12 -16q-24 -40 -45 -56q-32 -32 -39 -37q-3 -3 -12 -6t-13 -6q-3 -3 -10 -7.5t-10 -6.5l-25 -10zM100 1421q0 3 -2 3.5t-4 0t-2 -1.5q2 -2 8 -2z" />
<glyph unicode="v" horiz-adv-x="1046" d="M981 1425q0 -7 -5.5 -43t-11 -69t-6.5 -33q-9 -26 -19.5 -75.5t-16.5 -69.5q-19 -68 -29 -152q-13 -83 -64 -297q-7 -33 -24.5 -106t-24.5 -113l-10 -57l-6 -33q-6 -33 -29 -129q-25 -124 -28 -146l-17 -55q-14 -53 -14 -55q-24 0 -98.5 -5.5t-127.5 -2.5t-88 20 q-13 37 -26.5 106.5t-20.5 94.5q-11 40 -25 116.5t-16 86.5q-8 39 -23.5 105.5t-21.5 96.5l-16 99q-3 15 -11.5 46t-11.5 48q-1 5 -3.5 27.5t-10.5 31.5q0 30 -16 84q2 19 -13 84q-8 25 -16.5 69t-11.5 56l-19 66q-4 35 -10 53q-27 125 -29 147q30 24 72 27q82 10 186 -18 q61 -265 78 -355q4 -33 11 -55q4 -17 9 -46t7 -40q8 -36 21 -103t18 -92q3 -11 14.5 -52t16.5 -64q5 -19 13 -57t13 -58q22 71 55 235q8 45 28 122.5t26 107.5q8 45 27.5 125.5t23.5 97.5q33 163 53 234q85 25 162 14q22 -3 43 -12q38 -5 43 -7z" />
<glyph unicode="w" horiz-adv-x="1478" d="M1300 1436h17q35 0 94 -9q3 -22 -2 -30q-3 -67 -22.5 -189t-24.5 -164v-24.5t-4 -30.5q0 -18 -7.5 -62.5t-9.5 -58.5q-4 -27 -17 -99.5t-17 -115.5q-3 -28 -8 -58.5t-12.5 -66t-10.5 -55.5q-14 -79 -19 -98q-20 -79 -36 -193l-7 -49q-8 -21 -8 -65q-4 -11 -8 -37t-12 -39 q-2 0 -6.5 -1t-7 -0.5t-5.5 3.5q-3 0 -26.5 -3t-38.5 -3h-107q-4 0 -25 -0.5t-29 0t-22.5 3t-25.5 7.5q-3 0 -7 -1t-7 -1q-1 8 -7.5 26.5t-7.5 30.5l-4 39l-6 27q-41 269 -45 315q-15 68 -31.5 202.5t-32.5 201.5q-5 -8 -8 -28t-8 -28q-3 -12 -5 -34t-5 -31q-6 -18 -6 -19 q-3 -13 -8 -77q-1 -10 -15 -84q-1 -7 -1 -18.5t-1 -16.5q-3 -14 -7 -43t-7 -43q-27 -123 -39 -207q-19 -138 -39 -213q-16 2 -22.5 2t-22.5 -2.5t-23 -3.5q-16 -4 -43.5 -4h-33.5q-9 0 -25.5 -1.5t-30 -1.5t-24.5 3q-12 1 -24.5 3.5t-28.5 6.5t-27 6q-5 5 -6.5 13.5 t2.5 13.5q-8 41 -21 122t-18 109l-15 80q-29 186 -30 188q-3 17 -7.5 48.5t-7.5 48.5q-11 49 -28 184q-1 0 2 10q-15 70 -31 197q-4 34 -19 105.5t-20 101.5l-29 194l7 15l53 10q3 0 8 2t8 2q26 4 56.5 0.5t70 -11.5t53.5 -10q13 -118 31 -210q9 -39 19 -108.5t16 -100.5 q7 -41 19.5 -123t19.5 -123q3 -14 11 -55t11.5 -62.5t7.5 -55t5 -61.5q6 10 10 37l43 244l4 43q3 26 14.5 84.5t14.5 89.5q9 82 22 162q5 24 10.5 68.5t6.5 54.5q3 20 11.5 59t12.5 62q49 10 154 10q43 0 110 -23q4 -9 7 -47q0 -14 2.5 -29.5t7 -37.5t6.5 -31q3 -16 6 -46.5 t6 -45.5q14 -56 29 -172q2 -17 7.5 -76t10.5 -88l13 -70l43 -264q8 18 13.5 40.5t7 38.5t4 44.5t3.5 40.5q4 32 9.5 66.5t14 80t13.5 72.5q2 12 8 31q2 31 13 88l12 88q2 14 9.5 49t10.5 57q7 36 18.5 106.5t18.5 106.5l11 6q12 0 36 4.5t37 4.5q5 0 16 -1.5t20 -1.5t15 3z " />
<glyph unicode="x" horiz-adv-x="1034" d="M698 -10q0 6 -6 6q-69 151 -90 194q-14 29 -39.5 95.5t-42.5 99.5q-24 -59 -54 -124t-66.5 -142t-55.5 -119q-97 -20 -235 -10q-4 0 -9 1t-8 1q-4 0 -4 2q-2 0 -8.5 -1.5t-10.5 0t-8 7.5q2 14 7.5 28.5t10 24t14 26.5t13.5 25q24 54 41 86q10 21 39 80t43 90l39 91l41 86 q14 27 36.5 87t39.5 89q-9 19 -26.5 55.5t-31.5 66.5t-24 58q-9 23 -29.5 69t-29.5 70q-3 8 -10.5 22.5t-10.5 22.5l-39 90l-41 93l-59 137q-2 4 -8.5 13.5t-8 14t0.5 15.5q116 11 268 0q9 -9 10 -9q2 -1 6 -1q-3 -10 6 -25l164 -387q36 71 92 212t72 179q1 3 0.5 6t0 6 t3.5 4q31 19 76 19q30 2 90 -2l86 -8q3 0 10.5 1.5t10.5 0.5q13 -8 10 -33l-8 -25l-11 -24l-18 -43q-23 -49 -68.5 -137t-60.5 -119q-6 -19 -24 -58.5t-23 -60.5q-3 -1 -5 -8t-5 -8q-1 -10 -4.5 -19t-10 -20.5t-8.5 -14.5q-12 -26 -36 -75t-36 -76q16 -46 37.5 -98 t49.5 -115.5t42 -98.5q12 -33 35 -77q27 -73 31 -80q15 -30 41 -90t29 -66q8 -23 34 -67q13 -13 7 -23q-36 -6 -87.5 -8t-92.5 -1.5t-83 -0.5z" />
<glyph unicode="y" horiz-adv-x="1032" d="M963 1436q3 -3 4.5 -6t2 -6.5t0.5 -7t-1 -8.5l-1.5 -7.5t-3 -8.5t-3.5 -8t-3.5 -8.5t-3.5 -7.5l-6 -10q-6 -19 -10 -25q-10 -25 -57 -133l-15 -24q-1 -3 -9.5 -29.5t-14.5 -40.5q-12 -22 -29 -66t-27 -65q-25 -54 -108 -260q-4 -9 -13 -29t-15.5 -35t-10.5 -33 q-1 -35 2.5 -140.5t-0.5 -141.5q-4 -98 -4 -152q0 -14 3.5 -95t-1.5 -89q-4 -3 -9 -3.5t-11 0.5t-9 1q-14 -1 -51 -6.5t-59 -5.5l-60 4q-45 5 -55 10q0 55 2 88q0 16 2 46t2 46l-6 56q-7 155 4 397l-51 119q-8 40 -31 84q-74 161 -137 340q-10 33 -37.5 90t-34.5 73 q-15 47 -37 84q5 5 9 17q134 10 245 0q15 -3 27 0q26 -67 92 -262q25 -78 31 -91q7 -18 25.5 -57.5t25.5 -60.5q14 27 36 77t32 70l8 27q29 67 106 291q84 14 265 2z" />
<glyph unicode="z" horiz-adv-x="913" d="M375 240q86 -8 236 -7t229 -2q19 -76 2 -180q0 -2 -1.5 -17.5t-3.5 -25t-6 -12.5t-13.5 -3.5t-24 0.5t-17.5 1q-49 5 -176 10h-104q-32 -1 -94.5 -1t-114 -1t-94.5 -4q-32 -4 -66 -4q-49 0 -57 8q-6 7 -7.5 23t0 39.5t0.5 33.5v74v27l19 37q5 13 49 110q13 27 38 75.5 t34 67.5l104 216l17 36q3 7 10 16.5t10 16.5q16 30 42.5 94t43.5 95q5 8 13 25.5t10 21.5l45 90q4 8 10 24.5t10 24.5q3 6 9.5 16t10 19.5t3.5 19.5q-53 4 -240 4q-18 0 -52 1.5t-62 1.5t-52 -3q-2 0 -17 -1t-24.5 0t-17.5 5q-1 16 -8.5 61.5t-6.5 69.5q1 13 6 44t5 49 l14 14q0 2 4 2l2 -2q67 0 194.5 -4.5t184.5 -5.5q62 -3 186.5 -1t186.5 -1q8 -14 4 -41q-6 -114 -2 -142q-12 -21 -66 -131q-10 -25 -34.5 -66t-32.5 -61q-3 -3 -4 -6.5t-1 -7.5t-1 -6l-43 -92l-41 -94q-13 -34 -43.5 -94.5t-42.5 -88.5q-11 -30 -21 -47q-2 -3 -20 -45 q-14 -23 -34.5 -68.5t-31.5 -66.5l-12 -23q-3 -3 -4 -10.5t-4 -11.5q-3 -7 -10.5 -22.5t-11.5 -24.5t-8 -23t-5 -26z" />
<glyph unicode="{" horiz-adv-x="565" d="M176 565q-13 24 -37 45t-41 31t-53 29q-10 43 8 118l9 2q8 2 8 -2q11 9 32.5 24t32.5 24q23 23 31 57q2 5 8 21.5t8.5 27.5t3.5 23q2 25 -16 98q-3 16 -7 49t-7 49q0 8 -2.5 19.5t-3.5 15.5l-5 33q-1 11 -5 33t-5 34q0 10 1 21.5t2.5 25t2.5 21.5q7 58 35 121 q15 43 23 57q11 18 55 62q5 5 16.5 13.5t14.5 10.5l34 23q8 4 68 18q61 12 94 10q3 -1 7 -7t8 -7q5 -21 6.5 -46.5t1.5 -41.5t-2 -47t-2 -41q-6 -6 -13.5 -9.5t-17.5 -6t-16 -5.5q-6 -6 -9 -6q-34 -15 -45 -32q-10 -13 -19 -39.5t-11 -47.5q-1 -13 4 -79v-27l12 -66 q5 -41 8 -49q6 -22 10 -92l7 -78q1 -16 -13 -80q-4 -9 -20 -57q-4 -8 -9 -15.5t-12 -16.5t-10 -13q-4 -3 -21 -18t-28 -21q7 -9 43 -45q21 -21 33 -55q31 -75 33 -133q3 -66 -7 -146q-15 -120 -16 -155q0 -70 4 -91q5 -25 19.5 -55t31.5 -47q26 -26 47 -35q5 -3 31 -10 q12 -65 0 -178q-2 -4 -4.5 -6.5t-6 -4t-7 -2t-8.5 -0.5t-8.5 0.5t-9.5 2t-9 2t-9 2t-8 2.5q-94 11 -145 47q-8 4 -19.5 16.5t-17.5 16.5q-67 67 -82 125l-12 55q-8 26 -12 57v76q0 55 2 82l10 80q1 8 6 23t6 22q4 36 4 53q1 11 4 35.5t3 34t-3 28.5q-1 5 -4 12t-4 9 q-1 1 -6 16z" />
<glyph unicode="|" horiz-adv-x="430" d="M129 -307q-3 3 -3 6.5t1.5 8.5t1.5 9t-2 13t-2 12q0 24 2 73t2 74q0 46 4 140q0 23 -2 69t-2 70v221q4 63 -4 96q3 13 2 47t2 52q0 6 4 10q-4 157 0 205q3 32 3.5 65.5t-0.5 79.5t-1 66q0 69 -4 213q-1 34 1.5 101.5t2.5 98.5q0 23 -2.5 67t-2 79t6.5 67q68 13 158 2 q4 -61 0 -256q0 -2 1 -12t0 -16.5t-5 -12.5q-6 -61 0 -124q3 -23 1 -68t1 -68q4 -50 4 -73q0 -8 -1.5 -34t-0.5 -40q0 -3 3 -9.5t3 -9.5q5 -3 1.5 -27.5t-3.5 -27.5q0 -9 1 -27.5t1 -27.5q0 -11 -2 -30t-2 -30q0 -9 -1 -26.5t-1 -26.5q0 -17 1 -36.5t2.5 -43.5t2.5 -37 q0 -5 -2 -15t-2 -15l4 -19q1 -11 0 -34.5t0 -36.5v-72q-1 -13 1.5 -46t-1.5 -44q7 -89 4 -225q-1 -37 -1 -112t-1 -112q0 -8 -1 -25.5t-1 -25.5l-6 -106q-60 -16 -111 -9q-46 0 -55 15z" />
<glyph unicode="}" horiz-adv-x="561" d="M502 801q2 0 6 2.5t6 -2.5q7 -38 4 -119q-11 -10 -38 -25.5t-40 -29.5q-3 -3 -8.5 -13t-9.5 -14q-43 -62 -43 -129l8 -55q0 -4 -2 -11t-2 -10q1 -9 16 -78q3 -8 3.5 -24t3.5 -23q2 -8 7 -29t7.5 -37t1.5 -32q0 -7 -1 -19.5t-1 -19.5q0 -65 -4 -86q-8 -34 -23 -74 q-5 -8 -12 -21t-13 -22.5t-12 -17.5l-32 -41q-2 -2 -5.5 -4t-5 -4t-0.5 -6q-80 -76 -178 -84q-47 -4 -61 4q-23 95 -11 182q61 16 76 25q9 6 33 45q31 53 31 94q0 52 -8 96q-2 13 -5.5 60.5t-9.5 72.5q-1 8 -10.5 43.5t-9.5 53.5q-4 61 11 123.5t44 103.5t61 59 q-59 44 -88.5 96.5t-25.5 137.5q3 46 15.5 137t15.5 137q10 99 -17 158q-22 48 -59 80q-3 1 -6.5 0t-6.5 0q-7 5 -26 11t-27 11q-13 122 -6 176q94 27 219 -53q45 -27 76 -63q9 -13 21.5 -40t17.5 -36q3 -13 10 -34t10 -34q7 -19 11 -49q0 -11 -3.5 -34t-3.5 -36q0 -4 2 -13 t1 -15q0 -7 -1.5 -17.5t-1.5 -17.5l-10 -107q-2 -14 -6.5 -43t-7 -51t-2.5 -43q1 -42 17 -75t46 -72q6 -4 16 -12t11 -9q4 -4 17.5 -10t17.5 -14z" />
<glyph unicode="~" horiz-adv-x="1120" d="M997 786l31 -18q14 -8 25 -23q-3 -43 -27 -77q-3 -23 -18 -50q-6 -10 -15 -19t-22 -20.5t-21 -19.5q-23 -23 -45 -35q-102 -32 -151 -32q-2 0 -31 -1t-31 1q-6 0 -13 1t-15 2.5t-13 2.5q-7 1 -19.5 1t-19.5 1l-28 8q-12 4 -42.5 14t-53.5 16t-48 9q-6 0 -18.5 0.5 t-22.5 0.5t-18 -1q-96 -20 -125 -70q-3 -3 -5.5 -11t-6.5 -11q-32 3 -94.5 11t-86.5 11q-3 8 -3 25.5t-1 21.5q1 3 7 19l7.5 20t7 18t8 18.5t8 16.5t8.5 17.5t8.5 15t10.5 15.5t11 13t12 13l17 15q69 59 162 67q63 7 151 -8q7 -1 20.5 -5t20.5 -5q88 -20 105 -25 q130 -37 196 6q11 9 39 56l23 32q8 -1 17.5 -3.5t22.5 -6.5t21 -6q8 -4 27 -10.5t28 -10.5z" />
<glyph unicode="&#xa1;" horiz-adv-x="505" d="M371 -6v-23q-3 -8 1.5 -29t-1.5 -26q-4 -6 -10.5 -7t-16 0.5t-14.5 0.5q-11 0 -13 -2h-73q-9 0 -27.5 2t-26.5 2h-22.5t-26.5 4q-2 58 -2 82t2.5 82.5t3.5 81.5q0 48 3 136.5t4 115.5q1 45 3 122.5t3 139.5t0 117q-2 23 -2 65q0 6 2.5 30.5t2 30t-2.5 31.5 q35 12 93.5 15.5t96.5 -4.5q-1 -24 6 -66.5t8 -58.5q0 -14 -1 -40t-1 -38t-1 -36t-1 -36q-1 -24 1.5 -69t2.5 -66q0 -18 2 -70.5t1 -81.5q-4 -123 2 -200q4 -49 4 -205zM135 1126q0 20 -4 56t-4 53q0 55 10 113q54 16 166 12q6 0 17 -1t15.5 -1.5t11 -2t11.5 -5.5 q11 -86 11 -152q0 -15 -11 -72q-7 -3 -41 -8q-90 -10 -172 2q0 4 -5 5z" />
<glyph unicode="&#xa2;" horiz-adv-x="1005" d="M754 213q-7 -7 -22.5 -17.5t-22.5 -17.5q-43 -38 -111 -51q4 -78 4 -121q-1 -2 -4.5 -6t-3.5 -8q-17 1 -52 -2t-50 -2l-50 8q-2 2 -3.5 6t-3 5.5t-5.5 0.5v119q-1 0 -14 1t-21 5q-3 1 -6 5t-6 5q-3 3 -10.5 4.5t-10.5 4.5q-6 3 -23.5 10.5t-27.5 13.5q-5 3 -18 7t-17 7 q-54 43 -90 101q-8 14 -17.5 42t-14.5 40l-15 43q-3 20 -4 61.5t-4 61.5q-4 43 -2 63q4 74 2 109q0 5 -2.5 14t-3.5 12q-4 64 -2 99q3 20 8 63t8 62q14 101 23 122q8 23 47 72q24 40 55 64q83 69 164 71v125q1 2 4 9t4 12q64 20 158 0v-63.5t4 -80.5q7 -3 27.5 -11t29 -11.5 t25.5 -11t27.5 -13.5t24 -15t24.5 -18l41 -36q4 -12 18 -33t19 -31q5 -11 18 -59q15 -44 16 -60v-52t4 -69q-2 -2 -4.5 -3.5t-4 -3t-3 -4t-2.5 -5.5q-29 -6 -123 -10q-6 0 -19.5 -1.5t-24.5 -1.5t-19 3q-50 7 -54 14q-4 1 -0.5 14.5t3.5 16.5q3 66 -37 127q-8 1 -22 9t-17 9 q-35 11 -74.5 4.5t-64.5 -26.5q-24 -28 -28 -76t3 -96q4 -78 4 -111q0 -16 -1 -64.5t-0.5 -85.5t3.5 -69q4 -61 12 -84q17 -39 56 -53q38 -11 72.5 -3t62.5 29q2 5 14 17q30 46 17 137q4 4 6.5 10.5t5.5 9.5q30 4 118.5 1.5t108.5 -1.5q3 -1 5 -6.5t5 -5.5q30 -121 -49 -272 q-25 -44 -45 -60q-19 -15 -22 -18z" />
<glyph unicode="&#xa3;" horiz-adv-x="1261" d="M1122 369l13 -9q19 -98 -29 -192q-15 -28 -37.5 -53.5t-41 -41t-50.5 -40.5q-3 -2 -15 -10.5t-17 -11.5t-15.5 -8.5t-20.5 -9t-22 -5.5q-21 -8 -70 -8q-15 0 -29.5 3t-32 8t-28.5 7q-3 1 -8 1t-8 1q-3 0 -7.5 2t-7.5 2q-49 12 -71 25q-12 6 -47.5 25.5t-57.5 27.5l-28 12 q-55 31 -95 31q-3 0 -8.5 -1.5t-9.5 -1.5t-8 3q-40 -13 -63 -42.5t-19 -74.5q-23 -18 -105 -18q-20 1 -57 5t-53 5q-20 16 -6 90q15 64 16 66q8 27 27.5 62.5t25.5 49.5q7 6 22 22.5t25 24.5q25 22 62 31q11 141 0 313q-69 4 -115 -4q-13 64 0 166q-6 6 -6 21q16 3 56.5 1 t64.5 1q-5 91 -3 204t25 193q21 47 35 68q4 7 15 16t16 16q4 5 10 15.5t10 15.5q43 43 68 58q99 41 221 32q9 0 37 -4q17 -10 31 -10q4 -1 12 0t12 0q5 0 11 -4.5t8 -5.5q3 -3 10 -4t10 -4q45 -30 103 -80q53 -56 90 -144q28 -116 22 -194q-2 -1 -5.5 -3.5t-5.5 -2.5t-7 2 q3 -10 0 -13q-51 -12 -115 -10t-119 16q-4 16 -3 55t-3 60q-3 11 -10 30.5t-10 31.5q-32 23 -41 28q-63 19 -123 -12q-42 -18 -45 -64q-1 -13 0.5 -38t1.5 -35v-86q0 -8 2.5 -39.5t2 -39t-2.5 -38.5q90 0 139 -2q6 0 17 1.5t19.5 1.5t14.5 -3q3 0 3 -1.5t3 -2.5l8 -1 q7 -1 11 -5q15 -89 -6 -172q-12 -9 -23 2q-23 -3 -84.5 -3.5t-91.5 -4.5q1 -42 -3 -144.5t-1 -167.5q27 -4 49.5 -15t52 -31t41.5 -27q3 -1 15.5 -8t16.5 -9l16 -8t17.5 -8t17 -6t19 -5t18 -2.5t20.5 -1.5t20 2q23 3 39 21t23 36.5t15.5 48.5t14.5 44q4 2 47 8h47 q3 0 6.5 -2t6.5 -2q12 -3 49 -6.5t59 -11.5z" />
<glyph unicode="&#xa4;" horiz-adv-x="1249" d="M1151 262q11 -10 15 -14t11.5 -14t5 -17.5t-13.5 -13.5q-8 -20 -25 -37.5t-30 -26.5t-39 -24q-2 0 -6 2.5t-8 1.5q-31 34 -100 96q-3 3 -8 8.5t-9 9.5t-8 7l-27 22q-17 17 -45 53q-16 -10 -78 -28q-92 -27 -211 -17t-190 58q-22 -19 -55 -57t-45 -50q-17 -19 -51.5 -51 t-47.5 -45q-30 2 -61 33q-29 22 -43 51q-3 4 -4.5 8t-3.5 10t-4 11q21 28 48 58t47 50t54.5 53.5t52.5 51.5l-18 32q-36 209 -8 336q6 59 26 92q-13 18 -53 54q-16 13 -32 28t-33.5 33.5t-28 30t-31.5 35.5l-28 32q2 8 -3 13q7 12 15 23t19 21t18.5 16t22 17t20.5 15 q2 0 6 2.5t6 -2.5l8 10q36 -31 101.5 -96t101.5 -96q41 36 143 51q89 10 152 8q76 -6 196 -53q22 17 52 51q9 8 49 53l49 41l47 45q55 -25 92 -78q19 -31 17 -37q0 -4 -2.5 -7t-7.5 -6t-7 -5l-16 -20q-27 -27 -33 -37q-18 -20 -65.5 -64t-69.5 -71q44 -109 35 -267 q-12 -149 -39 -211q18 -18 54.5 -55t67 -68t56.5 -55zM737 580q16 73 11 125q-9 74 -25 104q-12 24 -28 33t-50 14q-50 6 -113 -22q-26 -34 -34 -56q-6 -14 -7.5 -36t-0.5 -38.5t3.5 -41t2.5 -31.5q5 -75 20 -92q20 -29 98 -33q28 0 74 20q4 3 15 6.5t14 6.5q4 3 20 41z" />
<glyph unicode="&#xa5;" horiz-adv-x="1032" d="M932 494q14 -10 13.5 -44.5t2.5 -54.5q-4 -18 -8 -51.5t-6 -46.5q-36 4 -197 -2q-8 0 -28 1t-34.5 0.5t-29.5 -3.5q-1 -25 0.5 -137.5t-2.5 -143.5q-5 -5 -8 -14q-39 -12 -88 -11.5t-76.5 5t-85.5 16.5q9 68 6 148q-13 102 -8 135q-30 1 -87.5 3t-105 3t-90.5 0 q-3 1 -5 4.5t-5 3.5q-21 72 -10 135l4 33q2 2 6 6.5t6.5 8.5t3.5 8q64 4 277 4q0 11 -1 35.5t-0.5 42.5t3.5 36q-40 -1 -122 3t-118 4h-33q-3 1 -6 6t-6 6q-9 18 -10 43.5t2 52.5q1 14 0.5 25t0 22.5t3.5 18.5q11 11 6 20q45 5 209 0q-92 217 -248 608l17 17q78 12 129 12 q26 0 69.5 -7.5t59.5 -8.5q4 -4 4 -13q2 -2 8 -2q2 0 4 -2q22 -57 74.5 -209.5t87.5 -234.5q35 98 43 115q8 20 21.5 57.5t21.5 56.5q10 23 30 70.5t35 84.5t27 73q65 23 133 23t133 -19q-2 -19 -22 -66q-32 -60 -70 -151q-7 -27 -59.5 -176.5t-81.5 -217.5q34 -4 106 -5.5 t107 -4.5q12 -69 10 -100q0 -8 -4 -47.5t0 -49.5q-49 -5 -147.5 -3.5t-151.5 -0.5q-5 -4 -1.5 -50t3.5 -62q205 -14 289 -8z" />
<glyph unicode="&#xa6;" horiz-adv-x="428" d="M137 834q-4 3 -5 9t-5 7q-8 197 2 432q1 36 -2.5 124t0.5 124q0 8 1 32t0.5 42t-3.5 34q36 7 98 7q42 4 62 -11q-7 -21 -1.5 -135.5t5.5 -128.5q-1 -26 -3 -81.5t-3 -101t0 -85.5q1 -28 -0.5 -130.5t2.5 -133.5q-18 -8 -73 -5t-75 1zM272 494q11 -3 17.5 -13.5t7.5 -27 t1 -31t-1.5 -34t-1.5 -28.5l3 -45t3 -54.5t0 -47.5q0 -23 -1 -70.5t-1 -72.5q-1 -28 0 -87t-0.5 -104t-7.5 -84q-3 -22 1 -61t1 -56q-71 -6 -154 0q-4 9 -4 46q-4 94 -4 151q0 35 -4 105q-1 40 1.5 111.5t2.5 96.5q0 29 -2.5 92.5t-1.5 111.5t8 91q24 3 68.5 5.5t68.5 5.5z " />
<glyph unicode="&#xa7;" horiz-adv-x="886" d="M735 -74q-24 -71 -97 -123t-151 -57q-77 -3 -149 14q-44 11 -59 19q-14 7 -29 22q-3 3 -10 7.5t-11.5 8t-7.5 7.5q-4 4 -15 20t-24 19q-35 57 -41 92q-3 17 -5 54t-5 54q2 8 21 13l24 8h29q5 1 26 4.5t31 3.5q26 0 72 -12q3 -11 3 -32t3 -30q5 -20 41 -61q71 -29 121 -6 q29 13 41.5 51.5t1.5 81.5q-2 11 -5.5 20.5t-10.5 20t-10 14t-14 16.5t-13 15q-8 9 -25 23t-23 20q-6 -3 -13 1.5t-16.5 13.5t-13.5 12l-67 53q-31 25 -33 26q-3 2 -13.5 6.5t-13.5 8.5q-4 3 -10.5 11t-9.5 11q-62 52 -94 121q-2 6 -10.5 28.5t-12.5 35.5q-4 12 -4 59 q0 35 2 53q0 33 6 60q4 14 9 26t13.5 29.5t12.5 26.5q3 3 17.5 18.5t19.5 21t17 16.5t22 18t22 14q-41 32 -57 55q-26 32 -43 68q-30 58 -35 77q-29 105 8 220q12 21 37.5 55t36.5 51q5 3 22.5 18t30.5 21q60 34 154 37q34 4 79.5 -4.5t78.5 -22.5q7 -3 20 -13.5t21 -14.5 q27 -9 61 -48q33 -40 51.5 -102.5t12.5 -128.5q-39 -20 -140 -8q-8 0 -19 0.5t-16 0.5t-11.5 1t-9.5 3.5t-6 6.5t-5 10q-3 7 -4.5 27.5t-5.5 30.5l-17 28q-2 1 -15.5 8t-16 8.5t-16.5 7.5t-17.5 5.5t-18.5 2.5t-20 -1q-35 -7 -60 -30.5t-24 -59.5q5 -49 16 -66l21 -24 q51 -55 69 -72q22 -22 49 -43q38 -23 56 -39q14 -3 31 -18.5t22 -18.5q13 -24 42 -47.5t54 -48.5t35 -55q1 -2 6 -43q1 -5 5 -28t5.5 -33.5t3.5 -29.5t1.5 -35t-3.5 -32q-25 -134 -129 -221l21.5 -21.5t24 -25t18.5 -23.5q11 -12 21.5 -29t16 -28.5t17 -37t15.5 -34.5 q26 -69 2 -157q-3 -8 -7.5 -28t-7.5 -28zM516 535q16 11 24 56.5t-3 70.5q-5 12 -24 27.5t-38 21.5q-23 3 -39 0q-3 0 -11.5 -0.5t-11.5 -1t-9.5 -1.5t-9.5 -2.5t-7.5 -4t-7.5 -5.5q-2 0 -17 -16q-1 -1 -6.5 -7t-6.5 -7.5t-4.5 -6.5t-4.5 -8t-2.5 -8.5t-1.5 -11.5 q-1 -24 6.5 -43t14.5 -27.5t24 -25.5q39 -39 90 -21q40 17 45 21z" />
<glyph unicode="&#xa8;" horiz-adv-x="585" d="M578 1593q-85 -7 -218 4q-20 81 -8 220q2 2 5 3.5t4 2.5t1 4q120 11 181 6q22 0 39 -10q2 -18 3.5 -39t1.5 -35t-1 -41t-1.5 -35.5t-3.5 -41.5t-3 -38zM27 1595q-3 3 -9.5 4.5t-9.5 4.5q-11 93 4 213q12 6 27.5 9t27 3.5t32.5 1t30 0.5q55 4 96 -4q6 -15 8 -37.5t2 -34.5 t-2 -43t-2 -33q-1 -6 -1 -30t-3 -37q4 -11 0 -17q-6 -8 -41 -8q-102 -4 -159 8z" />
<glyph unicode="&#xa9;" horiz-adv-x="1105" d="M1044 1030v-55q0 -102 -16 -160q-6 -28 -17 -54t-31 -63t-26 -49q-34 -39 -75 -67q-49 -45 -78 -60l-27 -10q-14 -11 -22 -14q-11 -5 -74 -25q-74 -24 -129 -24q-13 0 -41 4q-63 12 -76 16q-22 4 -35 10q-36 12 -59 27q-28 16 -53 35q-32 20 -49 37l-43 47 q-37 43 -72 102l-15 29q-13 22 -21 56t-10.5 53.5t-6.5 66.5q0 4 -1.5 27.5t-0.5 41.5q9 101 59 183q8 9 17 28.5t12 24.5q8 11 19 22.5t17 18t21.5 20t19.5 17.5q47 42 134 90l69 22q53 17 72 17h69q30 2 93 -10q30 -6 90 -33q7 -3 18.5 -11.5t18.5 -11.5q7 -4 20.5 -9.5 t18.5 -8.5q17 -16 24 -21q26 -18 49 -51q3 -4 13.5 -13.5t13.5 -14.5q3 -3 4 -6.5t4 -6.5l29 -33q64 -77 73 -184zM940 997q-2 21 -20 74q-11 28 -36.5 73t-27.5 48q-6 3 -10.5 7.5t-8.5 11t-8 10.5l-34 26q-7 4 -18.5 13.5t-18.5 13.5q-18 10 -55 25.5t-41 17.5 q-64 25 -179 8q-94 -31 -151.5 -70.5t-110.5 -124.5q-1 -13 -10.5 -31.5t-11.5 -27.5q-5 -19 -11 -55.5t-10 -50.5q2 -14 6.5 -65.5t12.5 -74.5q9 -23 23.5 -47t26 -39t33 -41.5t31.5 -38.5q19 -6 27 -26q7 -3 17.5 -11.5t17.5 -11.5q41 -21 98 -35l39 -8q5 0 12.5 3t9.5 3 q13 2 52.5 6t58.5 9q17 0 19 2q149 34 219 166q4 9 17.5 34.5t19.5 40.5q4 9 18 82q3 8 4 17t1 20t1 17q-3 3 -3.5 7.5t0.5 12t1 10.5zM694 1186q27 -21 46.5 -66.5t15.5 -85.5q-6 0 -24 -0.5t-29 -0.5t-25.5 1.5t-24 6t-14.5 12.5q0 5 -0.5 13.5t-1 13.5t-1.5 11t-4.5 10 t-8.5 7q-4 3 -12 3.5t-15.5 0t-15.5 0.5q-64 0 -76 -4q-12 -2 -20 -11t-11.5 -26t-5 -30.5t0 -38.5t2 -36t4 -36.5t3.5 -26.5l6 -41q0 -2 1 -15.5t2 -20t4.5 -15.5t9.5 -12q13 -8 80 -8q28 0 36 2q17 17 21 43q1 1 1 11.5t3 14.5q1 1 21 6q29 6 63 0q4 -2 12 -4.5t12 -4.5 t7 -7q0 -103 -64 -143q-7 -5 -13 -7t-18.5 -4t-19.5 -4q-16 -8 -66 -8q-69 -10 -120 10q-8 4 -17 13q-15 3 -20 8q-3 1 -5.5 5t-4.5 7q-3 3 -8.5 6t-8.5 6q-16 28 -22 103q-3 17 -4.5 51t-4.5 51q-2 0 -1 26l1 27q-3 32 -2.5 64t9.5 55q1 2 7.5 11.5t10.5 17.5l12 20 q13 21 45 39l15 8q11 4 28 6t39 2t29 1q30 2 68.5 -5.5t56.5 -19.5q8 -4 16 -12z" />
<glyph unicode="&#xaa;" horiz-adv-x="778" d="M709 705q3 -3 5 -6q2 -4 5 -5q-2 -5 -7 -22t-7.5 -24.5t-8 -22.5t-10.5 -23t-12 -18.5t-15 -16.5t-18 -10q-71 18 -113 41q-70 -52 -186 -55q-17 -1 -34.5 1t-25.5 4t-30 8t-27 7q-10 8 -32.5 20.5t-32.5 22.5q-3 9 -6 12l-15 11q-2 2 -6 9.5t-10 10.5q-5 13 -16 34 t-13 26q-1 4 -5 9t-5 9q-2 0 -2 2q0 1 -0.5 1.5t-1 2t-0.5 4.5q-12 33 -14 81.5t8 96.5q27 79 61 115q53 49 132.5 70t166.5 10q-3 23 -1.5 43t-1.5 42t-13 36q-20 32 -53 35q-32 2 -80 -27q-1 -4 -6.5 -12.5t-6.5 -16.5t0 -14.5t-0.5 -13.5t-5.5 -11q-16 0 -55.5 -3.5 t-63.5 -2.5q-5 0 -17 0.5t-16.5 1.5t-11.5 3.5t-12 7.5q0 5 -1.5 25.5t-0.5 33.5q3 105 119 166q40 26 94 36.5t107 -1.5q11 5 41 -8q53 -17 94 -41q4 -6 18 -27.5t21.5 -38t11.5 -35.5q1 -8 8.5 -47.5t11.5 -64.5q4 -21 5 -48t0.5 -43.5t-2 -53.5t-1.5 -46 q-1 -23 0.5 -64.5t1.5 -54.5q0 -8 0.5 -28.5t1 -31.5t3 -26.5t8 -27.5t14.5 -21q15 -15 64 -26zM360 727q18 -1 32.5 4.5t21 11t22.5 21.5q0 24 -2.5 85t-3.5 77q-10 0 -31 1.5t-37 1t-30 -4.5q-13 -3 -29 -12.5t-24 -12.5q-24 -24 -27 -49q-1 -18 -1.5 -22t4.5 -18.5 t7 -21.5q3 -7 5 -19t5 -17q4 -9 11 -14.5t15 -7.5t18 -2.5t21 0t23 -0.5z" />
<glyph unicode="&#xab;" horiz-adv-x="1101" d="M551 168q0 -3 -2.5 -3.5t-5.5 0t-6 -0.5q-31 26 -109 88t-119 98q-32 30 -97.5 81t-92.5 75v6q-23 13 -41 31l-10 12q-7 16 -3.5 53.5t-3.5 50.5q0 18 4.5 42t14.5 24l24 23q2 2 10 11.5t13 12.5l25 19q21 21 67 57q28 24 92 76q28 22 88.5 74t94.5 77q6 8 19.5 18 t16.5 13q11 2 14 -9q3 -9 -7 -10q0 -3 3 -3t3 -3q4 -32 1.5 -113.5t-1.5 -107.5q-11 -9 -32.5 -24.5t-33.5 -24.5q-3 -1 -5 -5t-5 -5q-24 -18 -25 -19l-45 -41q-97 -78 -121 -102q15 -15 33 -27q40 -36 121 -103t121 -103q9 -83 0 -173q-1 -9 1.5 -32.5t-1.5 -32.5z M1028 854q-8 -6 -64 -47.5t-77.5 -58.5t-62.5 -50t-72 -61q0 -5 3.5 -9.5t4.5 -6.5q114 -89 225 -183l10 -10t9.5 -10t9.5 -8.5t12 -8.5q0 -18 2.5 -51.5t3.5 -46.5q0 -7 2 -18.5t2 -18.5q2 -27 -4 -96q-5 2 -6.5 1t-4.5 -4.5t-5 -4.5q-7 6 -27.5 25t-35.5 31.5t-33 23.5 q-11 19 -27 22q-14 14 -29.5 27t-37.5 30.5t-31 24.5q-15 14 -103 82q-24 24 -73 64t-72 63q4 18 -2 59.5t-5 72.5t19 38q6 8 15 16t20.5 17t17.5 14l13 12q3 3 9 6.5t9 6.5l92 73q14 14 41.5 37t38.5 33q27 24 81.5 68t82.5 67q3 5 11 12.5t11 12.5q1 0 9.5 -3t13.5 -3 q17 -71 4 -240z" />
<glyph unicode="&#xac;" horiz-adv-x="1077" d="M948 778q3 -59 3.5 -116t-0.5 -140.5t-1 -126.5q-3 0 -6 -8q-11 0 -47 1.5t-55 2t-48 0t-51 -3.5l-12 8q8 41 -4 107q-1 24 -3 65.5t-3 76.5t0 69q0 22 4 26h-63h-23q-12 -1 -25.5 -1t-30.5 0.5t-28 0.5q-34 3 -70 0q-11 0 -32 2t-33 2q-5 0 -14 -1t-13 -1q-12 0 -32 2 t-31 2q-24 -1 -72.5 -3t-89.5 -3t-78 0q-2 4 -10 0q-2 0 -2 3t0.5 7t-2.5 7q0 13 -3.5 46.5t-4 53.5t3.5 47q-3 7 -3 17t1.5 22.5t1.5 18.5q27 0 94.5 4.5t103.5 3.5q28 -4 41 -4q28 -1 81 2.5t75 3.5q9 0 37 -1.5t43 -0.5q16 0 43.5 -1t40.5 -1q138 0 176 -4q20 -1 76 3 t61 -1q0 -148 4 -187z" />
<glyph unicode="&#xad;" horiz-adv-x="788" d="M662 731q4 -28 5 -59.5t0 -75.5t-1 -57q-14 -11 -25 -15q-4 -1 -11 -1t-16 0.5t-14 0.5l-41 4q-15 0 -44 -2t-44 -2q-38 3 -115 1t-112 1q-12 1 -37 3.5t-35 2.5t-35 -2q-3 1 -5 5t-5 4q1 32 0 86.5t0 81.5q1 3 6.5 4.5t5.5 5.5q62 1 369 16q21 4 78.5 0.5t75.5 -2.5z " />
<glyph unicode="&#xae;" horiz-adv-x="1095" d="M1032 1014q18 -99 -31 -244q-30 -71 -90 -145q-30 -38 -73 -70q-12 -10 -27 -18t-37 -17t-31 -14q-104 -55 -247 -43q-1 0 -26 4t-40 4l-39 18q-115 46 -192 123q-30 30 -54 76q-31 51 -45 82q-2 9 -10 35.5t-11 38.5t-6.5 35.5t-4.5 46.5q0 9 -2.5 27t-2.5 26t11 65 q3 11 6 32t6 30q4 13 15.5 33.5t15.5 29.5q27 61 73 107q3 4 20 21t23 26l52 41q7 3 14 7.5t16 11.5t13 10q58 34 170 41.5t188 -9.5q43 -4 57 -18q0 -3 2.5 0t2.5 0q179 -95 198 -172q2 -7 3.5 -12t2 -8t3.5 -7.5l4 -6t6.5 -9t7.5 -10.5q38 -51 59 -168zM924 852 q13 83 -11 190.5t-75 161.5q-28 20 -39 39q-9 3 -17 14q-13 3 -20 13q-51 18 -66 33q-23 3 -39 10q-2 1 -9 1t-13 3q-3 0 -7.5 2.5t-6.5 3.5h-23q-4 0 -25 4t-34 4q-9 1 -47 -4q-72 -11 -136 -49q-37 -19 -71 -53q-17 -17 -54 -70q1 -1 0 -2.5t-2.5 -4t-1.5 -5.5 q-23 -28 -51 -111q2 -9 2 -12.5t-2.5 -11.5t-3.5 -13q-1 -7 1 -31.5t-3 -25.5q4 -41 14.5 -80.5t20 -62.5t31.5 -70l8 -8q18 -24 51 -49q67 -51 113 -70q8 -5 34 -16q5 -2 16.5 -8t16.5 -7q55 -9 133 6q7 2 74 23q-4 0 1 2q5 1 13 2q64 27 101 64q45 45 77 88l9 4 q34 66 41 96zM743 1102q21 -61 1 -129t-70 -92q4 -18 11 -35.5t18 -40.5t14 -31q2 -6 10.5 -21.5t9.5 -23.5q5 -11 0 -45q-65 -9 -114 6q-15 33 -39.5 97t-28.5 73q-32 0 -55 -2q4 -16 0 -84t-4 -94q-10 2 -52.5 2t-56.5 8q-5 53 -4 60q4 13 0.5 65.5t-2.5 71.5 q2 35 -1.5 155.5t7.5 155.5q1 7 16 11.5t29 4.5q23 5 76 3.5t84 3.5q7 -3 19.5 -4.5t17.5 -4.5q21 -7 45 -22q3 -2 10 -6t9 -5.5t6.5 -4.5t7 -6t6 -7t6.5 -10l14 -18q3 -4 5 -15t5 -16zM621 995q25 61 12 82q-6 10 -25.5 17.5t-38.5 9.5q-45 0 -61 -8q3 -16 2 -52t2 -63 q18 -7 56 -5t53 19z" />
<glyph unicode="&#xb0;" horiz-adv-x="636" d="M106 1067q-34 58 -40 96q-3 17 -3 113q42 101 84 143q27 27 41 33q44 19 97 23q58 6 112 -19q62 -25 82 -45q18 -16 37 -47l21 -29q6 -9 14 -31t10 -26q2 -7 6 -19.5t6 -22t2 -19.5q0 -14 -6.5 -39.5t-7.5 -40.5q-7 -9 -14.5 -31t-14.5 -31q-1 -3 -3 -5t-5.5 -4.5 t-5.5 -4.5q-16 -23 -57 -64q-6 0 -25 -14l-37 -14q-20 -9 -34 -17q-59 -11 -105 -2q-46 10 -88 45q-31 19 -53 47q-3 12 -13 25zM242 1288q-31 -39 -31 -80q0 -37 35 -63t76 -19q5 -5 22 -2q33 7 49 45q3 4 3.5 9t0 11t0.5 13q1 4 5.5 10.5t5.5 10.5q3 27 -17 55l-10 8 q-4 1 -5 6l-1 4q-14 14 -41 17q-50 3 -92 -25z" />
<glyph unicode="&#xb1;" horiz-adv-x="1091" d="M948 715q15 -77 15 -129q0 -38 -5 -45q-2 -3 -6 -6.5t-6 -5.5t-2 -5q-38 -4 -122.5 -0.5t-116.5 2.5q-36 0 -66 -6q-13 -94 2 -168q-4 -6 -8 -24q-108 -12 -162 4q-7 -2 -9.5 -2t-9 2.5t-8.5 3.5q-3 8 -6 8q5 140 4 170q0 3 4 4t5 4q-6 3 -12.5 3.5t-16 -0.5t-14.5 -1 q-154 11 -265 11q-3 1 -7.5 1t-8.5 1q-4 17 -2.5 73.5t0.5 73.5q0 2 -0.5 12t0 13.5t3 10t7.5 11.5q10 -5 22.5 -5.5t35 2.5t28.5 3q49 2 72.5 1.5t72 -3.5t76.5 -4q0 211 2 307q11 6 27.5 8t31.5 1.5t32 0.5q7 0 19 1t19 1h20.5t22.5 -4q2 -1 6 -4.5t6.5 -4.5t8.5 1 q5 -72 0 -305q76 6 256 -8q44 0 55 -4zM551 188q41 -1 125 -4t127.5 -3.5t134.5 1.5q19 -28 20 -84t-12 -96q-3 -1 -4.5 -2.5t-3.5 -4.5t-4 -5h-6h2q0 -3 -4 -3t-10.5 1.5t-10.5 1.5q-1 2 -39 1t-39 -1q-19 0 -56 -1t-56 -1q-5 0 -15 1t-14 1q-62 -4 -90 -4h-160 q-5 0 -23 -1.5t-28 -0.5q-28 1 -79.5 0.5t-93 0.5t-77.5 5q-11 20 -16 102q0 65 4 86q3 3 11 5t11 5q203 6 406 0z" />
<glyph unicode="&#xb2;" horiz-adv-x="663" d="M88 418q-7 7 -11 15.5t-5 20.5t-1 19.5t1.5 23.5t1.5 21q7 72 41 160q34 81 88 156q8 10 37 46t43 56q5 8 21 31t23 33t20 30.5t21 34.5t18 33t17 37q17 34 17 47q3 49 -25 71q-26 19 -60 13.5t-56 -27.5q-7 -8 -11 -18q-6 -13 -10 -42t-6 -36q0 -3 -1 -6.5t-1 -6.5v-10 q0 -3 -2 -8t-2 -8q-1 -3 -0.5 -5.5t0 -4t-3.5 -2.5q-6 -6 -35 0l-117 4q-3 3 -6 9t-6 9q2 23 -1 92.5t7 81.5q3 5 7 18.5t7 18.5q4 8 17.5 22.5t17.5 20.5q37 43 92 64q36 13 98.5 14.5t100.5 -12.5l25 -13q8 -4 26 -11.5t28.5 -12.5t24 -14.5t21.5 -20.5q59 -91 59 -201 q2 -41 -28 -100q-9 -18 -27.5 -46.5t-24.5 -39.5l-18 -27l-16 -26q-4 -7 -15 -17t-16 -16q-17 -17 -46 -50.5t-42 -47.5q-59 -94 -84 -148q-3 -7 -8 -43q133 -10 262 0q26 0 33 -4q4 -14 5.5 -28t1.5 -32.5t1 -27.5q0 -53 -8 -80q-7 -2 -8 -7q0 -1 -0.5 -1.5t-0.5 -1.5 q-105 6 -200 0q-40 -2 -143.5 3t-137.5 -3z" />
<glyph unicode="&#xb3;" horiz-adv-x="653" d="M575 813q0 -164 -6 -197v-22l-18 -47q-9 -21 -21 -33q-30 -40 -88 -70q-6 -2 -23 -9.5t-30 -10.5q-65 -16 -110 -8q-37 5 -76 22.5t-62 40.5q-6 8 -18 19t-14 14q-8 15 -25 59q-19 50 -16 152q1 5 -1.5 23.5t1.5 23.5q96 18 161 6q6 -10 9 -23t4.5 -31t3.5 -28 q11 -66 30 -94q4 -1 14 -5.5t15 -6t16 -3t17 2.5q34 13 47 35q8 14 12 51q15 90 2 153q-41 29 -127 29l-12 80q0 7 -1 20.5t-1 20.5q0 29 6 35h2q4 0 4 2q23 -6 59 2t50 20q12 12 18 37q4 15 4 74q0 8 1 27t0.5 31t-5.5 24q-3 13 -18 28q-24 23 -59.5 18t-49.5 -30 q-2 -2 -2 -4q0 -1 -1 -4t-1 -6l-10 -17l-10 -47q-3 -10 -3.5 -20.5t0.5 -25.5t1 -21q-25 -4 -70.5 -4h-56.5q-7 3 -23 4.5t-24 5.5q-7 51 -5.5 105.5t19.5 103.5l10 12l27 39q32 40 69 59q13 3 38 13.5t42 11.5h66q9 -1 26.5 -5t26.5 -5q19 -3 35.5 -10t23.5 -11.5t29 -21.5 q20 -12 47 -39q7 -7 13 -17.5t14 -27.5t12 -25l12 -31q14 -47 12.5 -105t-18.5 -105q-15 -41 -71 -93q8 -12 30.5 -36.5t34.5 -48.5t12 -56z" />
<glyph unicode="&#xb4;" horiz-adv-x="335" d="M332 1862q7 -10 5 -15.5t-9.5 -17.5t-8.5 -21q-11 -16 -52.5 -88t-71.5 -104q-2 -5 -19 -33q-23 3 -50.5 3.5t-65 -0.5t-50.5 -1q-6 17 -10 23q16 26 35 78q6 9 14 33t17 32q2 9 6.5 19t8.5 16t10.5 16.5t10.5 16.5q6 26 21 41q20 1 60.5 4.5t66.5 3.5q48 0 69 -8 q3 0 6.5 1t6.5 1z" />
<glyph unicode="&#xb5;" horiz-adv-x="1067" d="M147 -377q-1 -1 4 -2q8 -3 7 -6q-7 1 -15.5 6t-15.5 6l-4 260q0 27 3.5 74.5t4.5 63.5q4 35 0 139q-2 51 -2 71.5t2.5 70.5t3.5 71q2 68 2 207q5 164 4 196q-4 44 -4 197q0 65 2 92q0 8 4 12q-9 7 -8 21.5t8 23.5q-1 3 -4 1t-4 1q3 24 2 27q6 -4 8 -3t1.5 5t0.5 8 q104 19 236 -14q0 -68 -2 -107q-1 -60 1.5 -210t-1.5 -199q0 -15 -2 -44t-2 -44q-4 -60 -2 -90q0 -11 3 -37.5t3 -32.5q2 -9 4 -25.5t3.5 -26t5 -21t9.5 -19.5q21 -29 82 -45.5t97 0.5q14 5 32 17l21 14q27 21 33 61q-5 15 0 78q4 132 4 205q0 28 2 30q8 79 8 179 q0 103 -4 311q3 3 10 5t10 5q25 3 54 3t62.5 -1.5t49.5 -1.5q6 0 26 -1.5t28 -0.5q2 0 10.5 3.5t9.5 -1.5q4 -4 5 -8t0 -11t-1 -8q5 -56 4 -65l-4 -64q0 -55 -10 -133q-4 -86 -4 -131q-4 -81 -2 -119q4 -36 4 -53q0 -28 -4 -90q-1 -24 -1 -53.5t0.5 -67.5t0.5 -59 q1 -24 0 -75t0 -77q0 -7 2.5 -49.5t2 -50t-2.5 -49.5q0 -6 -3 -48t-3 -63q-87 -36 -254 6q-4 28 -3 89t-3 94q-11 -7 -27.5 -23.5t-28.5 -23.5q-14 -3 -40.5 -15.5t-43.5 -13.5q-64 -9 -129 26q-6 -33 -6 -100q-6 -189 -6 -205q0 -79 -4 -100q-46 -4 -66 -4q-80 3 -164 12z " />
<glyph unicode="&#xb6;" horiz-adv-x="1148" d="M465 238q12 241 6 374q-25 4 -64 6t-55 5q-57 8 -141 57q-52 33 -92 108q-55 102 -58 207q-3 71 5 131q3 17 13 49t13 46q9 26 23 59q19 25 20 27q47 65 129 102q5 3 16 6t17 6q38 17 53 17q5 1 25 -4q7 0 16 1t20 2.5t17 2.5q30 4 91 4h75q17 0 50 -2t48 -2q41 0 107 4 q60 6 170 -6h9.5h12t10 -1t10.5 -3.5t7 -6.5q4 -4 1 -21.5t-3 -21.5q-1 -19 1.5 -54t2.5 -52q0 -44 -1 -98.5t-2.5 -123t-2.5 -108.5q0 -78 -2 -119q-1 -58 0 -170.5t0 -164.5q0 -37 -1 -107t-1 -106q-5 -360 -4 -416l6 -107q3 -17 3 -52.5t3 -53.5q-9 -4 -49 -4 q-48 -6 -56 -6q-23 0 -59 4q-9 1 -16 0.5t-15 0t-12 3.5q12 130 10 188q-8 171 4 412q1 29 0 92.5t0 95.5q5 90 1 396t-3 415q-108 13 -164 6q-5 -32 -4.5 -208.5t0.5 -202.5q0 -22 -1.5 -90.5t-0.5 -106.5q0 -33 -1.5 -92t-1.5 -110.5t3 -102.5q5 -68 0 -244v-49 q7 -149 -4 -399q-62 -12 -88 -12q-8 1 -43 4.5t-55 3.5q12 146 2 362q-9 125 0 230z" />
<glyph unicode="&#xb7;" horiz-adv-x="548" d="M354 866q34 -17 43 -28q10 -12 14.5 -27.5t7 -36.5t5.5 -33q0 -65 -29 -114q-29 -21 -57 -33q-36 -19 -80 -19q-52 0 -92 43q-19 26 -31 62q-19 47 -2 125q6 6 11 13t10 15t8 13l22 18q59 43 123 27q17 -7 47 -25z" />
<glyph unicode="&#xb8;" horiz-adv-x="352" d="M14 -416q-3 1 -5.5 6t-10.5 2q-4 79 6 129q4 0 49 5q14 1 48 -3.5t51 -1.5q18 2 28 19.5t0 36.5q-13 25 -37 34t-67 7q-3 0 -9.5 -1t-9.5 -1q-12 141 -2 221q14 4 35 5t46.5 0.5t37.5 0.5q3 -3 2 -7q-1 -1 -0.5 -2t4.5 -1q1 -16 1 -43t1 -43q42 -2 90 -33q6 -6 22.5 -18 t24.5 -21q37 -50 27 -129q-8 -66 -51 -115q-5 -3 -14 -6t-13 -6q-26 -14 -67 -25q-47 -16 -80 -10q-10 -6 -51.5 -1.5t-55.5 1.5z" />
<glyph unicode="&#xb9;" horiz-adv-x="425" d="M354 645q0 -16 1.5 -62.5t1.5 -86.5t-3 -68l-14 -16q-19 1 -76 -1.5t-80 1.5q-2 2 -4.5 8t-7.5 6q-3 347 8 647q-1 14 1 79.5t-3 74.5q-64 -18 -108 -41q-5 -5 -17 -10.5t-18 -4.5q-3 1 -4 7t-4 10q-2 2 -2 4q-5 20 1 69t3 72q24 18 78 46.5t59 31.5q37 23 53 25 q1 4 33 2t33 -2h30t39 -4q4 -5 0 -21q3 -5 1 -16t1 -19q-3 -39 -1.5 -138.5t-2.5 -137.5q-1 -3 0.5 -9.5t1.5 -13.5q-4 -17 -5 -40.5t0 -55.5t1 -37q-3 -54 1 -154.5t3 -144.5z" />
<glyph unicode="&#xba;" horiz-adv-x="673" d="M606 1159v-14q3 -29 3.5 -65t0 -61t-2 -70t-1.5 -64q3 -11 3.5 -15t-2 -16.5l-3.5 -17.5q-1 -4 -1 -9t0.5 -10t0.5 -8q-6 -29 -10 -39q-17 -41 -53 -82q-15 -20 -19 -24q-15 -13 -71 -31q-13 -4 -23 -12q-9 -4 -45 -9q-13 -8 -49 -8q-9 0 -29 3.5t-24 4.5q-76 12 -119 43 q-41 27 -62 68l-4 14q-10 11 -12 15l-6 18q-9 14 -12 35q-4 4 -1 41.5t3 44.5q1 49 -2.5 142t-2.5 134q1 12 15 90q1 4 -0.5 13t2.5 10q0 3 3 6t3 6l2 13q6 16 33 43q21 24 59 47q6 3 10.5 5.5t10 6t10.5 6.5q4 3 12 6t18 7l15 6q10 3 29 3.5t28 4.5q7 -1 39 0.5t39 -2.5 l25 -8q66 -28 90 -44q2 -2 4.5 -5.5t5.5 -4.5q4 -4 8 -6l4 -2q7 -6 19 -25t22 -26q23 -39 37 -158zM426 887q-2 36 0.5 105.5t2 131t-10.5 101.5q-26 30 -99 30q-37 -7 -38 -8q-14 -10 -27 -28q-5 -14 -5.5 -45.5t-0.5 -32.5q0 -3 -2 -9.5t-2 -9.5q-1 -8 0.5 -25.5 t1.5 -27.5q-2 -27 -2 -68v-34q0 -4 -3 -42t1 -42q1 -3 1 -10t1 -11q0 -2 1 -6q8 -35 20 -46q4 -4 11 -9q25 -16 39 -20.5t43 3.5q9 3 21 12t16 11q11 3 15 8q20 20 16 72z" />
<glyph unicode="&#xbb;" horiz-adv-x="1097" d="M565 559q-6 -8 -21.5 -19.5t-21.5 -17.5q-19 -19 -37 -26q-13 -18 -46.5 -42.5t-41.5 -31.5l-12 -12l-8 -7l-53 -45l-58 -41l-20 -20q-86 -70 -127 -109q-2 -2 -10.5 -11.5t-14 -15t-13 -9.5t-12 1.5t-6.5 20.5q-1 8 -1 19t0.5 25.5t0.5 23.5q-9 77 3 153l18 21 q140 129 264 211q-15 14 -32 29t-37.5 32.5t-32.5 28.5q-97 79 -103 84q-37 32 -53 51q-7 0 -11.5 5t-6 13.5t-2 17t-0.5 20v16.5q-8 79 2 174q3 3 10 4t10 4q73 -55 150 -119.5t169 -145t144 -124.5q-2 -9 4 -15v-61q-4 -64 6 -82zM1030 709q0 -58 4 -152q-8 -8 -12 -20 q-19 -13 -50 -37.5t-42 -32.5l-12 -6l-19 -19l-20 -14q-2 -2 -5 -5.5t-6.5 -6.5t-7.5 -6l-6 -7q-24 -17 -67.5 -53.5t-61.5 -50.5q-53 -41 -55 -43q-9 -3 -23 -20q-8 -3 -17 -10t-12 -9l-65 -63q-4 2 -6 6t-2.5 11t-0.5 13t0.5 15t0.5 14q5 19 0.5 94t-4.5 88 q37 41 93.5 92.5t78.5 63.5q37 26 100 78q-6 13 -20 18q-18 19 -71.5 61.5t-76.5 73.5q-18 12 -51 43t-49 43q-3 0 -4 3t-4 3q-4 22 -0.5 78t2.5 78q6 16 6 82q3 1 18 -11.5t19 -13.5q12 -12 40.5 -35.5t41.5 -37.5q8 -4 21.5 -16.5t21.5 -16.5q4 -7 18 -17t18 -18 q9 0 19 -10q6 -6 25.5 -20.5t27.5 -24.5q15 -9 53 -47q20 -15 75 -66t87 -69z" />
<glyph unicode="&#xbc;" horiz-adv-x="1439" d="M946 678l37 92q7 14 26.5 52t31.5 66t20 56q1 4 6 20.5t10 24.5q2 2 8 2q0 -4 2 1t3 14q116 16 186 -2q6 -9 1.5 -60.5t-1.5 -69.5q3 -6 4 -6q-7 -27 -4 -65q0 -5 -0.5 -19t-0.5 -27.5t1 -25.5q0 -42 4 -51h-2q3 -40 3.5 -95t-0.5 -129.5t-1 -95.5q43 -9 88 0 q15 -12 0 -24q-2 -2 4 -8q4 -32 4 -54q1 -10 -2.5 -46t0.5 -46q-3 -4 -44 -2t-44 2q-3 -28 -3.5 -54.5t0.5 -60.5t1 -47q-16 -5 -31 -7.5t-33 -3.5t-28.5 -1.5t-32.5 0t-31 0.5q-11 11 -14 12l-6 160q-44 0 -138 -1t-143 -1q-3 4 -10.5 6t-11.5 4q-1 11 -7 38t-7 40 q-4 35 6 45l100 244l16 33q3 7 7.5 23.5t7.5 23.5zM342 20q12 37 47 125q9 21 22.5 64.5t22.5 64.5q1 3 13.5 29t17.5 41q15 36 42.5 107.5t43.5 107.5q20 44 84 219q68 187 82 219q11 23 28 72t29 72l62 139q22 54 28 74q13 58 23 76q52 9 55 8q14 1 31 1t37 -0.5t28 -0.5 q6 1 11.5 0t8 -2.5t8.5 -5t9 -5.5q-9 -39 -63 -172q-5 -10 -31 -92l-33 -86q-16 -40 -88.5 -228.5t-114.5 -289.5q-15 -34 -40.5 -99t-28.5 -73q-43 -104 -64 -176q-14 -48 -49 -131q-2 -5 -10 -21.5t-7 -18.5t1 -20q-3 0 -5.5 -1.5t-3.5 -3.5t-2.5 -4.5t-3.5 -4.5 q-6 0 -10 3.5t-6 4.5q-73 -12 -139 -4q-30 4 -35 12zM76 1182q-4 3 -4.5 15t0.5 30t0 26q-4 55 -2 76q15 15 36 29.5t37 23.5t43 23t41 22q97 15 140 15q16 0 28 -12q4 -32 5 -67t1.5 -84t1.5 -69q4 -161 3 -217q-10 -129 -7 -237q1 -2 0.5 -56t-0.5 -55q-3 -90 7 -203 q-39 -17 -95 -14h-30q-13 1 -35 9.5t-31 8.5q-5 1 -2.5 13.5t2.5 13.5q2 33 2 102q2 30 -2 91q-3 16 -3 33t1.5 38t1.5 33q0 48 1 149t1 150q0 16 1 53.5t0.5 64.5t-3.5 54q-12 -4 -35.5 -15t-36.5 -16q-5 -3 -17 -8t-17 -8q-25 -18 -33 -12zM1108 627q-14 -39 -48.5 -128 t-51.5 -139q69 0 108 2q-3 44 -3.5 131t-4.5 134z" />
<glyph unicode="&#xbd;" horiz-adv-x="1507" d="M1442 735q-9 -78 -44.5 -143.5t-94.5 -142.5q-119 -151 -168 -259q48 -8 140.5 -7t149.5 -1q9 -9 9 -37q1 -9 5.5 -35.5t4.5 -41.5q0 -30 -12 -76q-3 -3 -6 -3t-7.5 1.5t-7.5 1.5q-94 4 -170 4q-19 0 -55 -1.5t-65.5 -1.5t-53.5 3q-21 1 -43.5 0t-50 -3t-43.5 -3 q-3 1 -5 5.5t-5 4.5q-2 36 2 104q0 10 6 52q6 12 10 23t7.5 30t4.5 22q4 16 12 35t14.5 30.5t19.5 32.5t18 29l18 29q4 6 12 15.5t9 11.5l4 16l8 6l4 13q4 8 14 18q3 3 7.5 9t7.5 9q13 15 30.5 42.5t26.5 39.5l31 43q5 8 13.5 24t12.5 23q1 3 7 14t8 15.5t8 16.5t7 17.5 t5 19t2.5 20t-0.5 20.5q-1 2 -3.5 8.5t-2.5 9t2 9.5q-27 43 -86 37q-36 -12 -51 -66q-14 -58 -14 -71q0 -3 1 -9.5t1 -9.5t-2 -4t-2 -4t1 -5t1 -5q-76 -13 -164 2q-3 3 -6 8t-6 8q-10 90 -3 111q1 9 15 51q3 7 7 22.5t7 22.5q20 39 57 68q90 69 199 57q32 0 45 -8 q7 -3 21.5 -4t21.5 -4q6 -2 21.5 -12t29.5 -11q1 -8 12.5 -18t12.5 -11q12 -17 27 -43l26 -43l17 -43v-22q6 -13 10 -35q0 -29 -2 -31zM1032 1417l-37 -104q-6 -15 -18.5 -50t-20.5 -53q-26 -57 -77 -204q-17 -52 -58.5 -154t-58.5 -154q-5 -18 -19.5 -51t-19.5 -49l-23 -80 q-5 -14 -16 -39.5t-14 -32.5q-30 -61 -60 -143q-14 -29 -32.5 -87.5t-20.5 -65.5q-8 -25 -27.5 -73t-27.5 -73q-22 0 -86.5 -1.5t-98.5 -0.5q-3 3 -5 8t-5 8q25 72 94 258q16 50 33 80q1 9 15 41q4 18 10 21q21 70 98 268q9 19 57 150l17 28l10 37q2 7 12 33.5t13 40.5l6 20 q1 2 3.5 6t2.5 5.5t-2 5.5q26 73 85 209.5t85 210.5q15 2 42.5 5t45 5t42 3.5t46.5 0.5q1 -3 1.5 -6t1 -5t1 -3t0.5 -2q-3 -3 3 -6.5t3 -6.5zM389 434q-6 -14 -61 -14q-54 -2 -115 8q-3 8 -3.5 17t0.5 23t1 21q3 183 -6 373q-1 31 0.5 86t1.5 74q1 35 -0.5 100t-1.5 92 q-11 -1 -11 3q0 2 7 14q-8 -4 -28.5 -14t-33.5 -15q-7 -3 -20 -10t-23 -11t-20 -5q-13 9 -12.5 34.5t-2.5 42.5q2 8 7 86q144 71 180 91q-6 6 0 6q0 2 2 4q14 -4 60 -2.5t57 0.5q3 -3 10 -7.5t10 -7.5q10 -43 4 -178t-4 -184q5 -34 1.5 -197.5t-3.5 -185.5v-211q6 -26 4 -33 z" />
<glyph unicode="&#xbe;" horiz-adv-x="1556" d="M1485 342q5 -26 3.5 -86t0.5 -86q0 -4 -15 -2l-14 2q-13 1 -37 -0.5t-32 -1.5q-1 0 -1 -37l1 -37q4 -69 -9 -98q-12 -4 -14 -6q-19 1 -68.5 3.5t-76.5 2.5q-6 27 -7.5 87t-3.5 79q-93 -2 -290 2q-1 2 -3 10.5t-10 9.5q-1 21 -4.5 57.5t-3.5 57.5q0 3 2 7t2 9q1 6 9 21.5 t10 19.5q15 34 59 133.5t66 153.5q23 64 71.5 175.5t65.5 156.5q3 3 5 13t5 13q79 20 172 7q15 -15 18 -56q0 -13 -2.5 -43t-1.5 -45q1 -17 -0.5 -73t2.5 -72q-1 -39 3.5 -111t5.5 -96q1 -19 -3 -76t-1 -92q69 5 96 -2zM516 477q-8 -8 -24.5 -16.5t-20.5 -11.5 q-44 -21 -111 -31q-18 -2 -51 -2q-43 0 -67 8q-4 1 -12.5 5t-12.5 5q-48 18 -67 37q-13 13 -41 49q-11 14 -18 32.5t-9 28t-5.5 42.5t-4.5 41q-4 69 0 88l8 12q37 8 86.5 7t83.5 -11q0 -2 -1 -29.5t0 -46.5t5 -35q2 -5 4.5 -12.5t4.5 -12t5 -8.5q14 -15 27 -22q4 0 26 -4 t27 0q11 5 26 18t21 23q10 18 13 55t-2 62q0 3 -4 8.5t-5 7.5q-3 5 -5 16t-5 15q-4 8 -15 18t-14 14q-14 3 -34 14t-27 13q-3 0 -5.5 -3t-6.5 -3q-4 4 -19 39q-6 10 -4 59.5t2 59.5q8 0 28 -1t30.5 -1t25 4t25.5 12q18 11 26 35q3 8 3 23.5t1 19.5q0 4 3.5 14t3.5 18 q2 1 1 32t-1 32q0 20 -7 37q-8 19 -35.5 30t-52.5 5q-4 -1 -13 -6t-17 -5q-9 -10 -16 -23t-11 -23.5t-7 -29.5t-4 -29t-2.5 -34.5t-2.5 -34.5q-15 0 -50 -2t-53 -2q-6 0 -16.5 1t-17 1.5t-14 2t-13.5 5.5q-11 58 -9.5 124t27.5 108l15 20q53 92 196 101q39 4 47 -6 q99 -4 150 -60q59 -59 71 -112q5 -16 7 -35.5t3 -49.5t1 -34q0 -81 -11.5 -107.5t-70.5 -93.5q44 -24 62.5 -76t23.5 -131q5 -45 -6 -106t-35 -113q-8 -6 -17.5 -19.5t-15.5 -19.5zM717 176l-39 -86q-12 -37 -35 -88q-26 -4 -59 -5.5t-59.5 -0.5t-59.5 0l-14 16 q59 141 71 174q10 26 30 88.5t34 94.5l67 176q25 71 74.5 194t63.5 160q51 135 106 260q5 12 86 221q17 40 18 41q16 9 66 9q47 0 70 2q35 5 43 -9q-7 -39 -31 -92l-35 -86q-24 -59 -69 -175.5t-68 -174.5q-14 -31 -33 -90q-25 -76 -82.5 -227.5t-81.5 -223.5 q-10 -24 -29.5 -85.5t-33.5 -92.5zM1210 356q-3 28 0 109t0 119q-2 -5 -30 -76q0 -2 -30 -75.5t-36 -84.5q21 8 96 8z" />
<glyph unicode="&#xbf;" horiz-adv-x="1001" d="M268 -35q-80 59 -110 146q-35 107 -29 174q10 88 41 143q54 111 135 211q-1 5 1 5t1 -5q6 14 23 36t22 30q2 4 13 20t16.5 27.5t9.5 25.5q8 28 8 88.5t2 81.5q0 4 5.5 8t5.5 7q65 17 151 8l51 -8q2 0 7 1.5t9 1.5t7 -3q4 -4 6 -15.5t3 -29t1 -21.5q11 -101 -26 -190 q-16 -40 -57.5 -105.5t-49.5 -79.5q-7 -15 -27.5 -44t-27.5 -46q-6 -5 -12 -12.5t-8.5 -12.5t-9.5 -18t-9 -18q-20 -32 -29 -74q-10 -76 15 -119q5 -3 22.5 -15t31 -19t27.5 -11q29 -9 58 17q40 28 55 57q6 14 9.5 30t7 40t4.5 32q4 18 4 76q3 3 8 5t6 5q25 6 56.5 7 t52.5 -0.5t61 -5.5t55 -5q0 -4 6 -12.5t7 -13.5q3 -6 3.5 -15.5t0 -19t0.5 -21.5v-59q2 -61 -25 -152q-69 -134 -211 -186q-36 -15 -67 -23q-70 -17 -175 15q-50 14 -96 35q-4 2 -12.5 5t-12 4.5t-8 6t-6.5 10.5zM403 1145q0 34 2.5 104t2.5 97q1 3 5 5t5 5q15 0 105.5 3 t105.5 -1q2 -2 6 -9t8 -10q12 -123 0 -188q-2 -2 -8.5 -11t-11.5 -12q-10 0 -63 -2t-88 0t-60 9q0 7 -9 10z" />
<glyph unicode="&#xc0;" horiz-adv-x="1034" d="M961 57l4 -28q1 -3 3.5 -8.5t2.5 -8t-2 -8.5q-165 -11 -244 -6q-7 7 -10 8q-1 17 -4 32t-9 33.5t-8 28.5l-14 56t-15 65t-10 58q-56 3 -147.5 -2t-130.5 -5q-5 -21 -26.5 -122t-39.5 -152q-160 -13 -241 -2q-6 5 -2 27q8 38 26 161q9 34 12 66q5 24 13.5 72.5t13.5 72.5 l21 76q0 19 12 51q2 17 8 69t10 79l17 63l6 35q1 3 5 10.5t4.5 10l2 10t-1.5 10.5q1 3 4 5t4 5q3 27 15.5 93t17.5 98q2 22 14 53q0 20 11 53q6 10 10 37q3 19 8 57.5t8 55.5l6 28q3 10 8 39.5t9 44.5q1 6 3.5 17t4.5 18t5.5 16t8.5 15q110 21 303 2q3 0 5.5 -3.5t5.5 -2.5 q5 -41 39 -195l10 -65l16 -60q4 -17 41 -190q12 -62 39 -181t39 -184q10 -48 20 -114q3 -17 14 -48.5t15 -46.5q4 -17 18 -88.5t23 -109.5l10 -52zM385 1655q-15 22 -43 65.5t-43 65.5q-24 34 -37 67q2 1 6 3.5t5.5 3t5.5 -1.5q19 4 43 5.5t40.5 1.5t45 -0.5t38.5 -0.5 q20 0 35 6h2q40 -74 49 -98q19 -28 39.5 -86t30.5 -78q-1 -2 0.5 -6.5t2 -6.5t-2.5 -4q3 -1 -2 -2q-7 -1 -8 -2q-3 -1 -7 -1t-7 1t-3 2q-16 -3 -38.5 -3.5t-54 0.5t-40.5 1q-3 0 -1 -2.5t-1 -3.5q-3 6 -10 8q0 4 -2.5 8t-7 8t-6.5 7q-7 12 -29 43zM420 530q43 -2 63 -1.5 t61.5 3t57.5 3.5q-45 224 -53 256q-3 12 -21 69t-18 84q-26 -144 -90 -414z" />
<glyph unicode="&#xc1;" horiz-adv-x="1034" d="M961 57l4 -28q1 -3 3.5 -8.5t2.5 -8t-2 -8.5q-165 -11 -244 -6q-7 7 -10 8q-1 17 -4 32t-9 33.5t-8 28.5l-14 56t-15 65t-10 58q-56 3 -147.5 -2t-130.5 -5q-5 -21 -26.5 -122t-39.5 -152q-160 -13 -241 -2q-6 5 -2 27q8 38 26 161q9 34 12 66q5 24 13.5 72.5t13.5 72.5 l21 76q0 19 12 51q2 17 8 69t10 79l17 63l6 35q1 3 5 10.5t4.5 10l2 10t-1.5 10.5q1 3 4 5t4 5q3 27 15.5 93t17.5 98q2 22 14 53q0 20 11 53q6 10 10 37q3 19 8 57.5t8 55.5l6 28q3 10 8 39.5t9 44.5q1 6 3.5 17t4.5 18t5.5 16t8.5 15q110 21 303 2q3 0 5.5 -3.5t5.5 -2.5 q5 -41 39 -195l10 -65l16 -60q4 -17 41 -190q12 -62 39 -181t39 -184q10 -48 20 -114q3 -17 14 -48.5t15 -46.5q4 -17 18 -88.5t23 -109.5l10 -52zM756 1862q7 -10 5 -15.5t-9.5 -17.5t-8.5 -21q-10 -15 -52.5 -87.5t-72.5 -104.5q-5 -11 -18 -33q-23 3 -50.5 3.5t-65 -0.5 t-50.5 -1q-6 17 -10 23q16 26 35 78q6 9 13.5 33t16.5 32q3 12 8 22.5t15.5 25.5t13.5 20q6 26 21 41q20 1 60.5 4.5t66.5 3.5q48 0 69 -8q3 0 6.5 1t6.5 1zM420 530q43 -2 63 -1.5t61.5 3t57.5 3.5q-45 224 -53 256q-3 12 -21 69t-18 84q-26 -144 -90 -414z" />
<glyph unicode="&#xc2;" horiz-adv-x="1034" d="M961 57l4 -28q1 -3 3.5 -8.5t2.5 -8t-2 -8.5q-165 -11 -244 -6q-7 7 -10 8q-1 17 -4 32t-9 33.5t-8 28.5l-14 56t-15 65t-10 58q-56 3 -147.5 -2t-130.5 -5q-5 -21 -26.5 -122t-39.5 -152q-160 -13 -241 -2q-6 5 -2 27q8 38 26 161q9 34 12 66q5 24 13.5 72.5t13.5 72.5 l21 76q0 19 12 51q2 17 8 69t10 79l17 63l6 35q1 3 5 10.5t4.5 10l2 10t-1.5 10.5q1 3 4 5t4 5q3 27 15.5 93t17.5 98q2 22 14 53q0 20 11 53q6 10 10 37q3 19 8 57.5t8 55.5l6 28q3 10 8 39.5t9 44.5q1 6 3.5 17t4.5 18t5.5 16t8.5 15q110 21 303 2q3 0 5.5 -3.5t5.5 -2.5 q5 -41 39 -195l10 -65l16 -60q4 -17 41 -190q12 -62 39 -181t39 -184q10 -48 20 -114q3 -17 14 -48.5t15 -46.5q4 -17 18 -88.5t23 -109.5l10 -52zM307 1696l6 8l13 14q8 9 21.5 30t21.5 30l6 4l6 14q3 6 11.5 14t10.5 11q1 1 1.5 4t1.5 4q6 17 18 29q19 11 51 6 q4 4 8.5 4.5t11 -1t9.5 -1.5q53 0 76 -6l6 -9q3 0 4 1.5t4 2.5q41 -55 139 -178l23 -35q1 -2 7 -9t8.5 -11.5t5 -11t0.5 -11.5t-9 -10q-2 2 0 4q-1 0 -3 -2t-3 -2q-6 -3 -12.5 -3t-13 1.5t-9.5 1.5q-22 3 -60.5 0.5t-60.5 1.5q-3 0 -5 -2t-5 -2l-12 15q-13 16 -40 40t-40 39 q-44 -26 -88 -84q-3 -4 -5 -0.5t-5 2.5q-3 0 -2.5 -3t-2.5 -3q-15 -5 -78.5 -0.5t-72.5 4.5q-4 23 2 29q6 0 6 4q1 1 1 4t1 6l25 27q2 3 9.5 14t12.5 15zM420 530q43 -2 63 -1.5t61.5 3t57.5 3.5q-45 224 -53 256q-3 12 -21 69t-18 84q-26 -144 -90 -414z" />
<glyph unicode="&#xc3;" horiz-adv-x="1034" d="M961 57l4 -28q1 -3 3.5 -8.5t2.5 -8t-2 -8.5q-165 -11 -244 -6q-7 7 -10 8q-1 17 -4 32t-9 33.5t-8 28.5l-14 56t-15 65t-10 58q-56 3 -147.5 -2t-130.5 -5q-5 -21 -26.5 -122t-39.5 -152q-160 -13 -241 -2q-6 5 -2 27q8 38 26 161q9 34 12 66q5 24 13.5 72.5t13.5 72.5 l21 76q0 19 12 51q2 17 8 69t10 79l17 63l6 35q1 3 5 10.5t4.5 10l2 10t-1.5 10.5q1 3 4 5t4 5q3 27 15.5 93t17.5 98q2 22 14 53q0 20 11 53q6 10 10 37q3 19 8 57.5t8 55.5l6 28q3 10 8 39.5t9 44.5q1 6 3.5 17t4.5 18t5.5 16t8.5 15q110 21 303 2q3 0 5.5 -3.5t5.5 -2.5 q5 -41 39 -195l10 -65l16 -60q4 -17 41 -190q12 -62 39 -181t39 -184q10 -48 20 -114q3 -17 14 -48.5t15 -46.5q4 -17 18 -88.5t23 -109.5l10 -52zM670 1821q51 10 116 6q3 -3 7 -12t6 -13q-3 -17 -3 -47t-3.5 -53.5t-14.5 -40.5q-7 -17 -41 -41q-22 -15 -43 -21 q-21 -7 -28 -8q-51 -9 -105 8q-8 4 -26 18t-27 19q-26 20 -56 26t-59 -9q-13 -8 -25 -33.5t-16 -30.5q-11 0 -34.5 -2t-44 -2t-37.5 4q-1 6 -4 15.5t-3 17.5q0 5 1 14.5t1 14.5q0 42 7 69q8 26 30 47q48 59 115 66q17 1 76 -10q10 -2 18.5 -4.5t17 -6t13 -5.5t13.5 -7.5 t12 -7.5t14 -9t14 -9q2 -1 12 -5.5t14 -6.5t14 -5.5t14 -2.5t12 1q28 9 43 66zM420 530q43 -2 63 -1.5t61.5 3t57.5 3.5q-45 224 -53 256q-3 12 -21 69t-18 84q-26 -144 -90 -414z" />
<glyph unicode="&#xc4;" horiz-adv-x="1034" d="M961 57l4 -28q1 -3 3.5 -8.5t2.5 -8t-2 -8.5q-165 -11 -244 -6q-7 7 -10 8q-1 17 -4 32t-9 33.5t-8 28.5l-14 56t-15 65t-10 58q-56 3 -147.5 -2t-130.5 -5q-5 -21 -26.5 -122t-39.5 -152q-160 -13 -241 -2q-6 5 -2 27q8 38 26 161q9 34 12 66q5 24 13.5 72.5t13.5 72.5 l21 76q0 19 12 51q2 17 8 69t10 79l17 63l6 35q1 3 5 10.5t4.5 10l2 10t-1.5 10.5q1 3 4 5t4 5q3 27 15.5 93t17.5 98q2 22 14 53q0 20 11 53q6 10 10 37q3 19 8 57.5t8 55.5l6 28q3 10 8 39.5t9 44.5q1 6 3.5 17t4.5 18t5.5 16t8.5 15q110 21 303 2q3 0 5.5 -3.5t5.5 -2.5 q5 -41 39 -195l10 -65l16 -60q4 -17 41 -190q12 -62 39 -181t39 -184q10 -48 20 -114q3 -17 14 -48.5t15 -46.5q4 -17 18 -88.5t23 -109.5l10 -52zM799 1593q-85 -7 -217 4q-21 84 -9 220q2 2 5 3.5t4.5 2.5t1.5 4q119 11 180 6q22 0 39 -10q2 -18 3.5 -39t1.5 -35t-1 -41 t-1.5 -35.5t-3.5 -41.5t-3 -38zM248 1595q-3 3 -9.5 4.5t-9.5 4.5q-11 93 4 213q12 6 27.5 9t27 3.5t32.5 1t30 0.5q55 4 96 -4q5 -12 7.5 -26.5t2.5 -33v-29t-1.5 -33t-1.5 -26.5q-1 -6 -1 -30t-3 -37q4 -11 0 -17q-6 -8 -41 -8q-103 -4 -160 8zM420 530q43 -2 63 -1.5 t61.5 3t57.5 3.5q-45 224 -53 256q-3 12 -21 69t-18 84q-26 -144 -90 -414z" />
<glyph unicode="&#xc5;" horiz-adv-x="1034" d="M961 57l4 -28q1 -3 3.5 -8.5t2.5 -8t-2 -8.5q-165 -11 -244 -6q-7 7 -10 8q-1 17 -4 32t-9 33.5t-8 28.5l-14 56t-15 65t-10 58q-56 3 -147.5 -2t-130.5 -5q-5 -21 -26.5 -122t-39.5 -152q-160 -13 -241 -2q-6 5 -2 27q8 38 26 161q9 34 12 66q5 24 13.5 72.5t13.5 72.5 l21 76q0 19 12 51q2 17 8 69t10 79l17 63l6 35q1 3 5 10.5t4.5 10l2 10t-1.5 10.5q1 3 4 5t4 5q3 27 15.5 93t17.5 98q2 22 14 53q0 20 11 53q6 10 10 37q3 19 8 57.5t8 55.5l6 28q3 10 8 39.5t9 44.5q1 6 3.5 17t4.5 18t5.5 16t8.5 15q110 21 303 2q3 0 5.5 -3.5t5.5 -2.5 q5 -41 39 -195l10 -65l16 -60q4 -17 41 -190q12 -62 39 -181t39 -184q10 -48 20 -114q3 -17 14 -48.5t15 -46.5q4 -17 18 -88.5t23 -109.5l10 -52zM690 1821q19 -56 0.5 -112.5t-57.5 -90.5q-42 -37 -100.5 -44.5t-106.5 21.5q-28 12 -51 29q-48 41 -58 123q-3 12 0 33 q9 54 39 98l15 14q29 40 102 58q7 3 22.5 4t22.5 4q4 -4 8.5 -5t11 -0.5t11.5 -0.5q11 -2 47 -17q31 -18 57.5 -49t36.5 -65zM420 530q43 -2 63 -1.5t61.5 3t57.5 3.5q-45 224 -53 256q-3 12 -21 69t-18 84q-26 -144 -90 -414zM561 1735q7 25 6.5 46t-9 34t-19.5 8 q-3 0 -17 0.5t-20 0t-17 -3t-20 -8.5q-24 -74 2 -92q12 -14 32.5 -11t37.5 11t24 15z" />
<glyph unicode="&#xc6;" horiz-adv-x="1554" d="M920 262q99 0 277 -4.5t233 -5.5q4 -17 5.5 -34.5t1 -38t-1.5 -34t-4 -39t-4 -36.5q-1 -12 -0.5 -21.5t-1.5 -21t-8 -21.5q-26 0 -116.5 1.5t-141.5 0.5q-23 0 -68 -3t-69 -3q-47 0 -141 4q-16 0 -45 -1.5t-52.5 -1.5t-44.5 3q-6 -3 -13.5 -3.5t-17.5 0.5t-14 1 q-2 0 -10 -1.5t-11.5 -2t-8.5 0.5t-9 5q-3 41 -1 132t-1 138q-23 0 -65.5 0.5t-67.5 0.5t-59 -1t-62 -4q-10 -29 -32 -133q-5 -18 -15.5 -65.5t-19.5 -69.5q-26 1 -128.5 -1t-125.5 3q-1 2 -1 5t-1 4t-4 1q23 65 46.5 190t26.5 140q10 52 19 82q11 36 20 75.5t19 89.5t16 75 q7 29 20 85.5t19 82.5q15 69 42 207t42 208q2 10 6 27t6.5 30t3.5 27l4 41q11 34 9 60q17 4 108 0t113 -4q247 -8 520 -11q36 -1 72 0t79 3t68 3q8 0 21 -1.5t22.5 -1.5t16.5 3q3 0 10.5 3t11.5 2q4 -7 5 -16.5t1.5 -24.5t1.5 -21q7 -64 -4 -166q-3 -23 -10 -28 q-38 3 -254 8q-146 11 -238 -6q0 -70 3 -181.5t4 -152.5q29 0 93 1.5t119.5 1.5t102.5 -3q7 -1 21.5 -1t19.5 -1q4 0 7 -2l3 -2q2 -1 7.5 0.5t7.5 -2.5q10 -54 8 -115t-13 -111q-3 -3 -12 -3t-14 -3q-36 6 -72 7t-94.5 -2t-73.5 -3h-76q-5 -1 -12.5 -3t-13.5 -3t-12 0 q0 -18 3 -166t-1 -172zM649 535q3 87 0 163q-2 80 -2 240q-3 40 0 80q5 121 0 158q-44 0 -63 -5q-9 -47 -36.5 -152t-37.5 -169q-4 -23 -25 -166q-3 -19 -14 -74t-16 -84q31 4 99 5t95 4z" />
<glyph unicode="&#xc7;" horiz-adv-x="1034" d="M854 1280q28 -45 42.5 -117.5t14.5 -144.5q0 -43 -6 -49q-4 -4 -9.5 -5.5t-8.5 -5.5q-16 -4 -64 -8q-95 -9 -170 17q-3 20 -4 74t-9 88t-30 53q-3 3 -8 5t-8 5q-26 23 -70 20q-110 -10 -131 -82l-6 -32q-1 -5 -3.5 -17t-2.5 -18q0 -2 1.5 -10t0.5 -11q0 -4 -2.5 -7 t-3.5 -7q3 -69 3 -160.5t-1.5 -203t-1.5 -162.5q0 -10 -0.5 -33t0 -36t1 -31.5t3 -35t6.5 -32.5q5 -33 16 -47q2 -2 6.5 -5.5t7 -6.5t3.5 -7q31 -18 75.5 -21.5t77.5 9.5q14 5 31 18.5t19 14.5q10 19 13 41t2 55t-1 45q0 4 2 11t2 10t-1.5 10t-1.5 12.5t3 9.5q5 12 59 19 q21 2 64 -2q94 -4 131 -21q3 -10 3 -20.5t-1.5 -23.5t-1.5 -21q-1 -18 0 -52.5t0 -50.5q-7 -52 -43 -131l-18 -41q-2 -3 -9 -9t-11 -12t-5 -12q-57 -46 -107 -69q-6 -3 -28.5 -12.5t-33.5 -14t-30.5 -9t-36.5 -5.5l5 -35q8 -2 22.5 -4t25.5 -5t21 -9q47 -29 60 -45 q17 -19 28 -70q12 -93 -22 -139q-10 -12 -39 -33q-31 -24 -90 -41q-46 -15 -78 -12q-5 0 -14.5 2t-14.5 2q-7 1 -20.5 1t-22 0.5t-19.5 3t-20 7.5q0 8 6 113q13 6 82 6t88 26q1 14 -2 24.5t-12 17.5t-17 11.5t-22.5 7.5t-23.5 4t-25.5 2.5t-22.5 2.5q-4 5 -5 11t0 17t1 13 q0 14 1 41t0.5 44.5t-3.5 35.5q-49 3 -96 24q-39 14 -59 29q-5 5 -15 12.5t-18 14.5t-14 14q-4 4 -20.5 19t-24.5 24q-29 44 -43 92q-3 12 -6 26t-5 26t-3.5 29.5t-2.5 28t-2 31.5t-1.5 29.5t-0.5 32.5v30.5v32.5v31q0 28 -4 82q0 18 3.5 48.5t4.5 41.5q1 33 -3 116.5 t-1 129.5l4 84l8 66l4 63q3 78 23 121q18 39 57 82q47 55 80 69q65 35 191 31q11 0 22.5 -1t25.5 -2.5t23 -2.5q45 0 68 -8l41 -17l43 -16q75 -34 135 -129z" />
<glyph unicode="&#xc8;" horiz-adv-x="997" d="M897 252q23 -110 4 -176q4 -14 -2 -44t-6 -32q-12 -9 -19 4l-253 4q-40 1 -113.5 -5t-106.5 -7q-40 -3 -80 -3.5t-95 0.5t-79 1q-3 3 -8 5t-8 5q-3 41 -3 121.5t-3 120.5q-1 19 0 59.5t0 59.5q-4 58 0 235q1 2 1 8t3 10q-3 4 -3 9t1.5 11t1.5 9q0 13 -2 37t-2 35 q-2 23 -2 63q-5 44 2 62q-1 26 0.5 131.5t-2.5 138.5q0 2 -2 4v6h2q2 100 2 297q10 7 10 15q98 8 270.5 5.5t272.5 0.5q32 1 90.5 -1.5t81.5 -2.5q4 0 14.5 1t18 0.5t14.5 -3.5q0 -2 0.5 -5.5t1.5 -10t2 -11.5q7 -35 8 -37q0 -12 0.5 -35t0.5 -35t-1.5 -30t-5.5 -35 q0 -31 -10 -61q-10 -3 -20.5 -3t-21.5 1.5t-17 1.5h-107q-18 0 -51 2t-49 2h-244q0 -21 2 -23v-4q0 -22 -4 -72l-2 -2q0 -19 -2.5 -61.5t-3 -65.5t3 -56t12.5 -58q26 0 80.5 2t98.5 2t77 -4q10 3 20.5 3.5t25.5 -0.5t22 -1q3 0 9 -1t9 -1t14.5 1t20 0.5t14.5 -3.5 q26 -124 4 -238q-14 -2 -43 -2q-101 4 -151 2q0 -4 -2 -2q-28 3 -60 3t-73 -1.5t-66 -1.5q-14 -234 -4 -344q43 0 192 -4.5t224 -1.5q14 0 26 6q7 -3 25 -2t25 -2q12 9 20 4zM449 1655q-16 22 -43.5 66t-43.5 65q-21 31 -36 67q2 1 5.5 3.5t5 3t5.5 -1.5q19 4 43.5 5.5 t41 1.5t45 -0.5t38.5 -0.5q20 0 35 6h2q40 -74 49 -98q19 -28 39.5 -86t30.5 -78q-1 -2 0.5 -6.5t2 -6.5t-2.5 -4q3 -1 -2 -2q-8 -1 -9 -2q-3 -1 -6.5 -1t-6.5 1t-3 2q-16 -3 -38.5 -3.5t-54 0.5t-40.5 1q-3 0 -1 -2.5t-1 -3.5q-3 6 -10 8q0 4 -3 8t-7.5 8t-6.5 7 q-11 19 -28 43z" />
<glyph unicode="&#xc9;" horiz-adv-x="997" d="M897 252q23 -110 4 -176q4 -14 -2 -44t-6 -32q-12 -9 -19 4l-253 4q-40 1 -113.5 -5t-106.5 -7q-40 -3 -80 -3.5t-95 0.5t-79 1q-3 3 -8 5t-8 5q-3 41 -3 121.5t-3 120.5q-1 19 0 59.5t0 59.5q-4 58 0 235q1 2 1 8t3 10q-3 4 -3 9t1.5 11t1.5 9q0 13 -2 37t-2 35 q-2 23 -2 63q-5 44 2 62q-1 26 0.5 131.5t-2.5 138.5q0 2 -2 4v6h2q2 100 2 297q10 7 10 15q98 8 270.5 5.5t272.5 0.5q32 1 90.5 -1.5t81.5 -2.5q4 0 14.5 1t18 0.5t14.5 -3.5q0 -2 0.5 -5.5t1.5 -10t2 -11.5q7 -35 8 -37q0 -12 0.5 -35t0.5 -35t-1.5 -30t-5.5 -35 q0 -31 -10 -61q-10 -3 -20.5 -3t-21.5 1.5t-17 1.5h-107q-18 0 -51 2t-49 2h-244q0 -21 2 -23v-4q0 -22 -4 -72l-2 -2q0 -19 -2.5 -61.5t-3 -65.5t3 -56t12.5 -58q26 0 80.5 2t98.5 2t77 -4q10 3 20.5 3.5t25.5 -0.5t22 -1q3 0 9 -1t9 -1t14.5 1t20 0.5t14.5 -3.5 q26 -124 4 -238q-14 -2 -43 -2q-101 4 -151 2q0 -4 -2 -2q-28 3 -60 3t-73 -1.5t-66 -1.5q-14 -234 -4 -344q43 0 192 -4.5t224 -1.5q14 0 26 6q7 -3 25 -2t25 -2q12 9 20 4zM655 1862q7 -10 5 -15.5t-9 -17.5t-8 -21q-10 -15 -52.5 -87.5t-72.5 -104.5q-4 -11 -18 -33 q-23 3 -50.5 3.5t-65 -0.5t-50.5 -1q-6 17 -10 23q13 21 34 78q6 9 14 33t17 32q3 12 8 22.5t15.5 25.5t13.5 20q6 27 20 41q20 1 60.5 4.5t66.5 3.5q49 0 70 -8q3 0 6 1t6 1z" />
<glyph unicode="&#xca;" horiz-adv-x="997" d="M897 252q23 -110 4 -176q4 -14 -2 -44t-6 -32q-12 -9 -19 4l-253 4q-40 1 -113.5 -5t-106.5 -7q-40 -3 -80 -3.5t-95 0.5t-79 1q-3 3 -8 5t-8 5q-3 41 -3 121.5t-3 120.5q-1 19 0 59.5t0 59.5q-4 58 0 235q1 2 1 8t3 10q-3 4 -3 9t1.5 11t1.5 9q0 13 -2 37t-2 35 q-2 23 -2 63q-5 44 2 62q-1 26 0.5 131.5t-2.5 138.5q0 2 -2 4v6h2q2 100 2 297q10 7 10 15q98 8 270.5 5.5t272.5 0.5q32 1 90.5 -1.5t81.5 -2.5q4 0 14.5 1t18 0.5t14.5 -3.5q0 -2 0.5 -5.5t1.5 -10t2 -11.5q7 -35 8 -37q0 -12 0.5 -35t0.5 -35t-1.5 -30t-5.5 -35 q0 -31 -10 -61q-10 -3 -20.5 -3t-21.5 1.5t-17 1.5h-107q-18 0 -51 2t-49 2h-244q0 -21 2 -23v-4q0 -22 -4 -72l-2 -2q0 -19 -2.5 -61.5t-3 -65.5t3 -56t12.5 -58q26 0 80.5 2t98.5 2t77 -4q10 3 20.5 3.5t25.5 -0.5t22 -1q3 0 9 -1t9 -1t14.5 1t20 0.5t14.5 -3.5 q26 -124 4 -238q-14 -2 -43 -2q-101 4 -151 2q0 -4 -2 -2q-28 3 -60 3t-73 -1.5t-66 -1.5q-14 -234 -4 -344q43 0 192 -4.5t224 -1.5q14 0 26 6q7 -3 25 -2t25 -2q12 9 20 4zM289 1696l6 8l12 14q8 9 21.5 30t21.5 30l6 4l6 14q3 6 12 14t11 11q1 1 1 4t1 4q5 15 19 29 q19 11 51 6q4 4 8 4.5t10.5 -1t9.5 -1.5q53 0 76 -6l6 -9q3 0 4 1.5t4 2.5q26 -35 140 -178l22 -35q2 -2 7.5 -9t8 -11.5t5.5 -11t1 -11.5t-9 -10q-2 2 0 4q-1 0 -3.5 -2t-3.5 -2q-6 -3 -12 -3t-12.5 1.5t-9.5 1.5q-22 3 -60.5 0.5t-60.5 1.5q-3 0 -5 -2t-5 -2l-13 15 q-13 16 -40 40t-40 39q-44 -26 -88 -84q-3 -4 -5 -0.5t-5 2.5q-3 0 -2 -3t-2 -3q-15 -5 -79 -0.5t-73 4.5q-5 23 2 29q7 0 7 4q1 1 1 4t1 6l24 27q3 3 7.5 10t8 11.5t7.5 7.5z" />
<glyph unicode="&#xcb;" horiz-adv-x="997" d="M897 252q23 -110 4 -176q4 -14 -2 -44t-6 -32q-12 -9 -19 4l-253 4q-40 1 -113.5 -5t-106.5 -7q-40 -3 -80 -3.5t-95 0.5t-79 1q-3 3 -8 5t-8 5q-3 41 -3 121.5t-3 120.5q-1 19 0 59.5t0 59.5q-4 58 0 235q1 2 1 8t3 10q-3 4 -3 9t1.5 11t1.5 9q0 13 -2 37t-2 35 q-2 23 -2 63q-5 44 2 62q-1 26 0.5 131.5t-2.5 138.5q0 2 -2 4v6h2q2 100 2 297q10 7 10 15q98 8 270.5 5.5t272.5 0.5q32 1 90.5 -1.5t81.5 -2.5q4 0 14.5 1t18 0.5t14.5 -3.5q0 -2 0.5 -5.5t1.5 -10t2 -11.5q7 -35 8 -37q0 -12 0.5 -35t0.5 -35t-1.5 -30t-5.5 -35 q0 -31 -10 -61q-10 -3 -20.5 -3t-21.5 1.5t-17 1.5h-107q-18 0 -51 2t-49 2h-244q0 -21 2 -23v-4q0 -22 -4 -72l-2 -2q0 -19 -2.5 -61.5t-3 -65.5t3 -56t12.5 -58q26 0 80.5 2t98.5 2t77 -4q10 3 20.5 3.5t25.5 -0.5t22 -1q3 0 9 -1t9 -1t14.5 1t20 0.5t14.5 -3.5 q26 -124 4 -238q-14 -2 -43 -2q-101 4 -151 2q0 -4 -2 -2q-28 3 -60 3t-73 -1.5t-66 -1.5q-14 -234 -4 -344q43 0 192 -4.5t224 -1.5q14 0 26 6q7 -3 25 -2t25 -2q12 9 20 4zM780 1593q-84 -7 -217 4q-20 81 -8 220q2 2 5 3.5t4 2.5t1 4q119 11 180 6q22 0 39 -10 q2 -18 3.5 -39t1.5 -35t-1 -41t-1.5 -35.5t-3.5 -41.5t-3 -38zM229 1595q-3 3 -9 4.5t-9 4.5q-11 93 4 213q12 6 27.5 9t27 3.5t32.5 1t30 0.5q55 4 96 -4q6 -15 8 -37.5t2 -34.5t-2 -43t-2 -33v-30t-4 -37q4 -11 0 -17q-6 -8 -41 -8q-103 -4 -160 8z" />
<glyph unicode="&#xcc;" horiz-adv-x="524" d="M135 719q0 42 0.5 116.5t0.5 130t-1 99.5q0 45 0.5 119.5t0.5 131.5t-1 105q6 0 10 13q65 8 166 8q58 0 72 -8q3 -32 4 -70t1 -66t-0.5 -74t-0.5 -71q2 -72 2 -225q0 -9 -1.5 -26t-1.5 -30.5t3 -23.5q1 -3 3.5 -5t2.5 -5q1 -4 1 -10t-0.5 -13t-0.5 -10v-27q0 -12 1 -32.5 t1 -28.5q-4 -16 -4 -23v-67q0 -23 -4.5 -137.5t0.5 -143.5l8 -86q6 -131 0 -260q-6 -5 -14.5 -7.5t-15 -3t-18 -1t-17.5 -0.5q-67 -10 -129 -2q-6 0 -17 0.5t-17 1t-13.5 3t-12.5 7.5q-6 106 -2 364q1 47 0 106t-3 134t-3 117zM131 1655q-16 22 -43.5 65.5t-42.5 65.5 q-24 34 -37 67q2 1 6 3.5t5.5 3t5.5 -1.5q19 4 43.5 5.5t41 1.5t45 -0.5t38.5 -0.5q19 0 34 6h2q5 -9 13.5 -23.5t13.5 -23.5t11.5 -23t11.5 -28q19 -28 39 -86t30 -78q-1 -2 0.5 -6.5t2 -6.5t-2.5 -4q3 -1 -2 -2q-7 -1 -8 -2q-3 -1 -6.5 -1t-6.5 1t-3 2q-16 -3 -38.5 -3.5 t-54.5 0.5t-41 1q-3 0 -1 -2.5t-1 -3.5q-3 6 -10 8q0 4 -2.5 8t-7 8t-6.5 7q-7 12 -29 43z" />
<glyph unicode="&#xcd;" horiz-adv-x="524" d="M135 719q0 42 0.5 116.5t0.5 130t-1 99.5q0 45 0.5 119.5t0.5 131.5t-1 105q6 0 10 13q65 8 166 8q58 0 72 -8q3 -32 4 -70t1 -66t-0.5 -74t-0.5 -71q2 -72 2 -225q0 -9 -1.5 -26t-1.5 -30.5t3 -23.5q1 -3 3.5 -5t2.5 -5q1 -4 1 -10t-0.5 -13t-0.5 -10v-27q0 -12 1 -32.5 t1 -28.5q-4 -16 -4 -23v-67q0 -23 -4.5 -137.5t0.5 -143.5l8 -86q6 -131 0 -260q-6 -5 -14.5 -7.5t-15 -3t-18 -1t-17.5 -0.5q-67 -10 -129 -2q-6 0 -17 0.5t-17 1t-13.5 3t-12.5 7.5q-6 106 -2 364q1 47 0 106t-3 134t-3 117zM500 1862q7 -10 5 -15.5t-9.5 -17.5t-8.5 -21 q-10 -15 -52.5 -87.5t-72.5 -104.5q-4 -11 -18 -33q-23 3 -50.5 3.5t-65 -0.5t-50.5 -1q-6 17 -10 23q16 26 35 78q6 9 13.5 33t16.5 32q3 12 8 22.5t15.5 25.5t13.5 20q6 26 21 41q20 1 60.5 4.5t66.5 3.5q48 0 69 -8q3 0 6.5 1t6.5 1z" />
<glyph unicode="&#xce;" horiz-adv-x="524" d="M135 719q0 42 0.5 116.5t0.5 130t-1 99.5q0 45 0.5 119.5t0.5 131.5t-1 105q6 0 10 13q65 8 166 8q58 0 72 -8q3 -32 4 -70t1 -66t-0.5 -74t-0.5 -71q2 -72 2 -225q0 -9 -1.5 -26t-1.5 -30.5t3 -23.5q1 -3 3.5 -5t2.5 -5q1 -4 1 -10t-0.5 -13t-0.5 -10v-27q0 -12 1 -32.5 t1 -28.5q-4 -16 -4 -23v-67q0 -23 -4.5 -137.5t0.5 -143.5l8 -86q6 -131 0 -260q-6 -5 -14.5 -7.5t-15 -3t-18 -1t-17.5 -0.5q-67 -10 -129 -2q-6 0 -17 0.5t-17 1t-13.5 3t-12.5 7.5q-6 106 -2 364q1 47 0 106t-3 134t-3 117zM53 1696l6 8l13 14q8 9 21.5 30t21.5 30l6 4 l6 14q3 6 12 14t11 11q1 1 1 4t1 4q6 17 18 29q19 11 51 6q4 4 8.5 4.5t11 -1t9.5 -1.5q53 0 76 -6l6 -9q3 0 4 1.5t4 2.5q41 -55 139 -178l23 -35q1 -2 7 -9t8.5 -11.5t5 -11t0.5 -11.5t-9 -10q-2 2 0 4q-1 0 -3 -2t-3 -2q-6 -3 -12.5 -3t-13 1.5t-9.5 1.5q-22 3 -60.5 0.5 t-60.5 1.5q-3 0 -5 -2t-5 -2l-12 15q-12 16 -39.5 40t-40.5 39q-44 -26 -88 -84q-3 -4 -5 -0.5t-5 2.5q-3 0 -2.5 -3t-2.5 -3q-15 -5 -78.5 -0.5t-72.5 4.5q-4 23 2 29q6 0 6 4q1 1 1 4t1 6l25 27q2 3 9.5 14t12.5 15z" />
<glyph unicode="&#xcf;" horiz-adv-x="524" d="M135 719q0 42 0.5 116.5t0.5 130t-1 99.5q0 45 0.5 119.5t0.5 131.5t-1 105q6 0 10 13q65 8 166 8q58 0 72 -8q3 -32 4 -70t1 -66t-0.5 -74t-0.5 -71q2 -72 2 -225q0 -9 -1.5 -26t-1.5 -30.5t3 -23.5q1 -3 3.5 -5t2.5 -5q1 -4 1 -10t-0.5 -13t-0.5 -10v-27q0 -12 1 -32.5 t1 -28.5q-4 -16 -4 -23v-67q0 -23 -4.5 -137.5t0.5 -143.5l8 -86q6 -131 0 -260q-6 -5 -14.5 -7.5t-15 -3t-18 -1t-17.5 -0.5q-67 -10 -129 -2q-6 0 -17 0.5t-17 1t-13.5 3t-12.5 7.5q-6 106 -2 364q1 47 0 106t-3 134t-3 117zM545 1593q-84 -7 -217 4q-21 84 -9 220 q2 2 5 3.5t4.5 2.5t1.5 4q119 11 180 6q22 0 39 -10q2 -18 3.5 -39t1.5 -35t-1 -41t-1.5 -35.5t-3.5 -41.5t-3 -38zM-6 1595q-3 3 -9.5 4.5t-9.5 4.5q-11 89 5 213q12 6 27.5 9t26.5 3.5t32 1t30 0.5q55 4 97 -4q6 -15 8 -37.5t2 -34.5t-2 -43t-2 -33q-1 -6 -1 -30t-3 -37 q4 -11 0 -17q-6 -8 -41 -8q-103 -4 -160 8z" />
<glyph unicode="&#xd0;" horiz-adv-x="1026" d="M911 639q1 -15 1 -47.5t1 -48.5v-99l-8 -51q0 -6 1.5 -26.5t0.5 -28.5q0 -3 -2.5 -6t-3.5 -6q-3 -8 -3 -25.5t-1 -21.5q-4 -8 -5.5 -22.5t-4.5 -20.5q-4 -12 -16.5 -32t-16.5 -30q-18 -33 -37 -57q-9 -10 -51 -43q-5 -4 -16 -14t-20 -15.5t-19 -9.5q-73 -39 -146 -39 q-54 -4 -82 -4h-75q-100 -5 -125 -4q-11 0 -33 1t-33 1q-45 0 -61 6q-2 2 -15 6q-8 96 -8 221q0 74 2 123q0 94 2 133q4 111 0 148q-76 6 -102 0q-6 18 -1.5 87.5t1.5 98.5q2 2 4.5 3.5t4 3t3 4t2.5 5.5q36 9 92 5q-3 62 -3 169t-1 130q0 28 1.5 89t1.5 111.5t-3 89.5 q3 3 10.5 6.5t10.5 6.5q20 4 106.5 2.5t112.5 -0.5h104l111 -4l59 -17l29 -8q31 -8 55 -23l25 -18q48 -28 67 -61q8 -9 33 -54q2 -5 13 -26t14 -31q10 -29 14 -88q4 -51 4.5 -147t3.5 -136q3 -32 1 -93t1 -93zM651 360q0 4 4.5 6t3.5 5q-3 51 -3 105.5t1.5 118.5t1.5 99 q0 4 -6 244q0 11 1 31.5t1 34.5q0 8 1.5 24t1.5 29t-3 24q0 1 -6 25q-8 37 -31 63q-22 19 -63.5 25.5t-80.5 4t-79 1.5q-6 0 -2 -4q-9 -182 4 -371q21 4 68.5 1.5t71.5 -1.5q3 -4 5 -11.5t5 -10.5q0 -17 1 -53.5t0.5 -60t-5.5 -50.5q-25 -7 -70 -5.5t-76 -2.5q6 -12 2 -96.5 t-4 -94.5q0 -5 -1.5 -16t-1.5 -20.5t3 -16.5q0 -3 1 -8t1 -8q1 -3 -0.5 -8t-1.5 -7q-3 -43 4 -82q-4 -3 -4.5 -8.5t1 -15.5t1.5 -14q65 -10 131 0l45 6q46 15 74 51q5 57 4 67z" />
<glyph unicode="&#xd1;" horiz-adv-x="1095" d="M971 223q1 -27 -1.5 -105t1.5 -102q0 -2 -3.5 -6t-2.5 -8q-12 0 -89.5 -3t-87.5 1q-4 0 -33 3t-44 3q-9 29 -25 55q-13 38 -42 105t-42 102q-3 7 -13.5 29.5t-16 38t-9.5 33.5l-41 104q-14 37 -32 78.5t-42.5 92.5t-37.5 81q-1 1 -9.5 19.5t-9.5 29.5q-3 1 -10 21 q-1 -71 4 -422q0 -49 2 -74q0 -14 2 -39t2 -37q0 -9 -2 -27t-2 -26q-6 -51 -6 -156q-3 -1 -6.5 -0.5t-5 -0.5t-2.5 -5q-78 -27 -234 0q-5 11 -5.5 30.5t5.5 27.5q-4 9 -4 49q4 54 2 82q-1 7 -3.5 33.5t-2.5 39.5q-1 13 4 88q1 25 -1 73.5t-1 76.5v158q0 9 1.5 33.5t0.5 37.5 q-1 36 1.5 106.5t2.5 100.5q0 32 -1.5 113.5t-2 126.5t0 115t3.5 131q134 20 223 8q1 -3 2.5 -3.5t3.5 0t5 -0.5q7 -10 12.5 -21t11 -25t8.5 -22.5t9 -26.5l8 -24q22 -33 49 -104t37 -91q30 -67 71 -164q70 -187 144 -327l8 129q2 44 -2 135v274v56q0 7 -0.5 109t0.5 104 q145 24 244 -6q2 -47 2 -138q0 -24 1 -70t1 -69q-1 -16 -2.5 -44.5t-2.5 -52t-1 -44.5q3 -79 -1 -235.5t-1 -225.5v-111q5 -181 8 -217zM700 1821q52 10 117 6q3 -3 6 -12t6 -13q-1 -7 -3 -62.5t-17 -78.5q-7 -17 -41 -41q-22 -15 -43 -21q-20 -7 -29 -8q-51 -9 -104 8 q-8 4 -26 18t-27 19q-26 20 -56 26t-59 -9q-13 -8 -25 -33.5t-16 -30.5q-11 0 -35 -2t-44.5 -2t-37.5 4q-1 5 -3.5 15t-2.5 18q0 5 1 14.5t1 14.5q0 46 6 69q8 24 31 47q48 59 115 66q17 1 75 -10q9 -2 17 -4.5t13.5 -4t13.5 -5.5t11.5 -5.5t12.5 -7t10.5 -6.5t12.5 -8 t12 -8q3 -1 12 -5.5t13.5 -6.5t14 -5.5t13.5 -3l12 1.5q28 9 43 66z" />
<glyph unicode="&#xd2;" d="M860 627l3.5 -7t2.5 -8t-1 -7t-1 -7q0 -18 0.5 -68.5t0 -77t-2 -67t-6 -72.5t-12.5 -59q5 -27 -19 -82q-8 -13 -21 -30.5t-18 -24.5q-6 -8 -13.5 -15.5t-10.5 -10t-16 -11.5t-15 -10l-18 -17q-31 -18 -41 -22q-46 -25 -97 -37q-10 -2 -35 -8.5t-42 -9t-35 -1.5 q-6 1 -22 5t-25 4q-49 4 -54 6l-45 20q-19 13 -38 23l-37 24q-10 8 -31 28.5t-33 29.5l-26 37q-29 47 -39 79q-15 58 -17 99q0 15 -5.5 58.5t-2.5 70.5q0 24 2 26q0 9 1 38t1 38q0 4 -1 11t-1 10q-1 50 0.5 145.5t1.5 126.5v137q0 44 4 170v26t4 34q0 3 4 9.5t5 8.5 q10 37 26 53q4 6 9 11.5t12 11t10 8.5q2 2 12 13t13 14l12 12t14.5 13t14 10t16.5 10q12 6 50.5 21t57.5 28q8 1 31.5 5t34.5 5.5t32.5 4t36 3t34 -1t36.5 -4.5q13 -3 37 -15.5t37 -15.5l14 -4q23 -8 57.5 -30.5t45.5 -28.5q11 -12 20.5 -25.5t18 -30t13.5 -27t14 -31.5 t13 -29q23 -51 23 -177l4 -213q1 -14 1 -29.5t-0.5 -35t-0.5 -29.5q1 -13 -0.5 -55.5t2.5 -52.5zM610 412q4 22 4 92q-2 41 -2 100q-4 45 2 66q-6 18 -8.5 38.5t-3 57.5t-0.5 45q-1 13 0.5 64.5t-2.5 64.5q-1 15 0 54t0 59v55q-8 36 -35 63l-14 7q-2 2 -4.5 5.5t-5.5 4.5 q-1 1 -5.5 1t-5.5 1l-6 6q-13 8 -39 8q-74 -5 -104 -30q-14 -10 -31 -39q-4 -9 -5.5 -18t-1.5 -15t0.5 -19t0.5 -20q0 -48 -4 -227.5t0 -225.5q1 -16 3.5 -58.5t2.5 -60t-2 -59.5q-4 -112 33 -158q1 -3 1 -6t1 -4l27 -22q56 -13 102 -2t72 43q1 3 5 5t5 5q1 1 1 5t1 5 q1 3 3.5 5t2.5 3l4 17q1 2 2.5 5.5t2.5 5.5t1 3q4 9 2.5 35.5t-0.5 34.5zM342 1655q-16 22 -43 65.5t-43 65.5q-24 34 -37 67q2 1 6 3.5t5.5 3t5.5 -1.5q19 4 43 5.5t40.5 1.5t45 -0.5t38.5 -0.5q20 0 35 6h2q40 -74 49 -98q19 -28 39.5 -86t30.5 -78q-1 -2 0.5 -6.5t2 -6.5 t-2.5 -4q3 -1 -2 -2q-7 -1 -8 -2q-3 -1 -7 -1t-7 1t-3 2q-16 -3 -38.5 -3.5t-54 0.5t-40.5 1q-3 0 -1 -2.5t-1 -3.5q-3 6 -10 8q0 4 -2.5 8t-7 8t-6.5 7q-7 12 -29 43z" />
<glyph unicode="&#xd3;" d="M860 627l3.5 -7t2.5 -8t-1 -7t-1 -7q0 -18 0.5 -68.5t0 -77t-2 -67t-6 -72.5t-12.5 -59q5 -27 -19 -82q-8 -13 -21 -30.5t-18 -24.5q-6 -8 -13.5 -15.5t-10.5 -10t-16 -11.5t-15 -10l-18 -17q-31 -18 -41 -22q-46 -25 -97 -37q-10 -2 -35 -8.5t-42 -9t-35 -1.5 q-6 1 -22 5t-25 4q-49 4 -54 6l-45 20q-19 13 -38 23l-37 24q-10 8 -31 28.5t-33 29.5l-26 37q-29 47 -39 79q-15 58 -17 99q0 15 -5.5 58.5t-2.5 70.5q0 24 2 26q0 9 1 38t1 38q0 4 -1 11t-1 10q-1 50 0.5 145.5t1.5 126.5v137q0 44 4 170v26t4 34q0 3 4 9.5t5 8.5 q10 37 26 53q4 6 9 11.5t12 11t10 8.5q2 2 12 13t13 14l12 12t14.5 13t14 10t16.5 10q12 6 50.5 21t57.5 28q8 1 31.5 5t34.5 5.5t32.5 4t36 3t34 -1t36.5 -4.5q13 -3 37 -15.5t37 -15.5l14 -4q23 -8 57.5 -30.5t45.5 -28.5q11 -12 20.5 -25.5t18 -30t13.5 -27t14 -31.5 t13 -29q23 -51 23 -177l4 -213q1 -14 1 -29.5t-0.5 -35t-0.5 -29.5q1 -13 -0.5 -55.5t2.5 -52.5zM610 412q4 22 4 92q-2 41 -2 100q-4 45 2 66q-6 18 -8.5 38.5t-3 57.5t-0.5 45q-1 13 0.5 64.5t-2.5 64.5q-1 15 0 54t0 59v55q-8 36 -35 63l-14 7q-2 2 -4.5 5.5t-5.5 4.5 q-1 1 -5.5 1t-5.5 1l-6 6q-13 8 -39 8q-74 -5 -104 -30q-14 -10 -31 -39q-4 -9 -5.5 -18t-1.5 -15t0.5 -19t0.5 -20q0 -48 -4 -227.5t0 -225.5q1 -16 3.5 -58.5t2.5 -60t-2 -59.5q-4 -112 33 -158q1 -3 1 -6t1 -4l27 -22q56 -13 102 -2t72 43q1 3 5 5t5 5q1 1 1 5t1 5 q1 3 3.5 5t2.5 3l4 17q1 2 2.5 5.5t2.5 5.5t1 3q4 9 2.5 35.5t-0.5 34.5zM713 1862q7 -10 5 -15.5t-9.5 -17.5t-8.5 -21q-10 -15 -52.5 -87.5t-72.5 -104.5q-5 -11 -18 -33q-23 3 -50.5 3.5t-65 -0.5t-50.5 -1q-6 17 -10 23q16 26 35 78q6 9 13.5 33t16.5 32q3 12 8 22.5 t15.5 25.5t13.5 20q6 26 21 41q20 1 60.5 4.5t66.5 3.5q48 0 69 -8q3 0 6.5 1t6.5 1z" />
<glyph unicode="&#xd4;" d="M860 627l3.5 -7t2.5 -8t-1 -7t-1 -7q0 -18 0.5 -68.5t0 -77t-2 -67t-6 -72.5t-12.5 -59q5 -27 -19 -82q-8 -13 -21 -30.5t-18 -24.5q-6 -8 -13.5 -15.5t-10.5 -10t-16 -11.5t-15 -10l-18 -17q-31 -18 -41 -22q-46 -25 -97 -37q-10 -2 -35 -8.5t-42 -9t-35 -1.5 q-6 1 -22 5t-25 4q-49 4 -54 6l-45 20q-19 13 -38 23l-37 24q-10 8 -31 28.5t-33 29.5l-26 37q-29 47 -39 79q-15 58 -17 99q0 15 -5.5 58.5t-2.5 70.5q0 24 2 26q0 9 1 38t1 38q0 4 -1 11t-1 10q-1 50 0.5 145.5t1.5 126.5v137q0 44 4 170v26t4 34q0 3 4 9.5t5 8.5 q10 37 26 53q4 6 9 11.5t12 11t10 8.5q2 2 12 13t13 14l12 12t14.5 13t14 10t16.5 10q12 6 50.5 21t57.5 28q8 1 31.5 5t34.5 5.5t32.5 4t36 3t34 -1t36.5 -4.5q13 -3 37 -15.5t37 -15.5l14 -4q23 -8 57.5 -30.5t45.5 -28.5q11 -12 20.5 -25.5t18 -30t13.5 -27t14 -31.5 t13 -29q23 -51 23 -177l4 -213q1 -14 1 -29.5t-0.5 -35t-0.5 -29.5q1 -13 -0.5 -55.5t2.5 -52.5zM610 412q4 22 4 92q-2 41 -2 100q-4 45 2 66q-6 18 -8.5 38.5t-3 57.5t-0.5 45q-1 13 0.5 64.5t-2.5 64.5q-1 15 0 54t0 59v55q-8 36 -35 63l-14 7q-2 2 -4.5 5.5t-5.5 4.5 q-1 1 -5.5 1t-5.5 1l-6 6q-13 8 -39 8q-74 -5 -104 -30q-14 -10 -31 -39q-4 -9 -5.5 -18t-1.5 -15t0.5 -19t0.5 -20q0 -48 -4 -227.5t0 -225.5q1 -16 3.5 -58.5t2.5 -60t-2 -59.5q-4 -112 33 -158q1 -3 1 -6t1 -4l27 -22q56 -13 102 -2t72 43q1 3 5 5t5 5q1 1 1 5t1 5 q1 3 3.5 5t2.5 3l4 17q1 2 2.5 5.5t2.5 5.5t1 3q4 9 2.5 35.5t-0.5 34.5zM264 1696l6 8l13 14q8 9 21.5 30t21.5 30l6 4l6 14q3 6 11.5 14t10.5 11q1 1 1 4t1 4q5 15 19 29q19 11 51 6q4 4 8.5 4.5t11 -1t9.5 -1.5q53 0 76 -6l6 -9q3 0 4 1.5t4 2.5q41 -55 139 -178l23 -35 q1 -2 7 -9t8.5 -11.5t5 -11t0.5 -11.5t-9 -10q-2 2 0 4q-1 0 -3 -2t-3 -2q-6 -3 -12.5 -3t-13 1.5t-9.5 1.5q-22 3 -60.5 0.5t-60.5 1.5q-3 0 -5 -2t-5 -2l-12 15q-12 16 -40 40t-40 39q-44 -26 -88 -84q-3 -4 -5.5 -0.5t-5.5 2.5q-3 0 -2 -3t-2 -3q-15 -5 -78.5 -0.5 t-72.5 4.5q-5 23 2 29q6 0 6 4q1 1 1 4t1 6l25 27q2 3 9.5 14t12.5 15z" />
<glyph unicode="&#xd5;" d="M860 627l3.5 -7t2.5 -8t-1 -7t-1 -7q0 -18 0.5 -68.5t0 -77t-2 -67t-6 -72.5t-12.5 -59q5 -27 -19 -82q-8 -13 -21 -30.5t-18 -24.5q-6 -8 -13.5 -15.5t-10.5 -10t-16 -11.5t-15 -10l-18 -17q-31 -18 -41 -22q-46 -25 -97 -37q-10 -2 -35 -8.5t-42 -9t-35 -1.5 q-6 1 -22 5t-25 4q-49 4 -54 6l-45 20q-19 13 -38 23l-37 24q-10 8 -31 28.5t-33 29.5l-26 37q-29 47 -39 79q-15 58 -17 99q0 15 -5.5 58.5t-2.5 70.5q0 24 2 26q0 9 1 38t1 38q0 4 -1 11t-1 10q-1 50 0.5 145.5t1.5 126.5v137q0 44 4 170v26t4 34q0 3 4 9.5t5 8.5 q10 37 26 53q4 6 9 11.5t12 11t10 8.5q2 2 12 13t13 14l12 12t14.5 13t14 10t16.5 10q12 6 50.5 21t57.5 28q8 1 31.5 5t34.5 5.5t32.5 4t36 3t34 -1t36.5 -4.5q13 -3 37 -15.5t37 -15.5l14 -4q23 -8 57.5 -30.5t45.5 -28.5q11 -12 20.5 -25.5t18 -30t13.5 -27t14 -31.5 t13 -29q23 -51 23 -177l4 -213q1 -14 1 -29.5t-0.5 -35t-0.5 -29.5q1 -13 -0.5 -55.5t2.5 -52.5zM610 412q4 22 4 92q-2 41 -2 100q-4 45 2 66q-6 18 -8.5 38.5t-3 57.5t-0.5 45q-1 13 0.5 64.5t-2.5 64.5q-1 15 0 54t0 59v55q-8 36 -35 63l-14 7q-2 2 -4.5 5.5t-5.5 4.5 q-1 1 -5.5 1t-5.5 1l-6 6q-13 8 -39 8q-74 -5 -104 -30q-14 -10 -31 -39q-4 -9 -5.5 -18t-1.5 -15t0.5 -19t0.5 -20q0 -48 -4 -227.5t0 -225.5q1 -16 3.5 -58.5t2.5 -60t-2 -59.5q-4 -112 33 -158q1 -3 1 -6t1 -4l27 -22q56 -13 102 -2t72 43q1 3 5 5t5 5q1 1 1 5t1 5 q1 3 3.5 5t2.5 3l4 17q1 2 2.5 5.5t2.5 5.5t1 3q4 9 2.5 35.5t-0.5 34.5zM627 1821q51 10 116 6q3 -3 7 -12t6 -13q-3 -17 -3 -47t-3.5 -53.5t-14.5 -40.5q-7 -17 -41 -41q-22 -15 -43 -21q-21 -7 -28 -8q-51 -9 -105 8q-8 4 -26 18t-27 19q-26 20 -56 26t-59 -9 q-13 -8 -25 -33.5t-16 -30.5q-11 0 -34.5 -2t-44 -2t-37.5 4q-1 6 -4 15.5t-3 17.5q0 5 1 14.5t1 14.5q0 42 7 69q9 26 30 47q48 59 115 66q17 1 76 -10q10 -2 18.5 -4.5t17 -6t13 -5.5t13.5 -7.5t12 -7.5t14 -9t14 -9q2 -1 12 -5.5t14 -6.5t14 -5.5t14 -2.5t12 1 q28 9 43 66z" />
<glyph unicode="&#xd6;" d="M860 627l3.5 -7t2.5 -8t-1 -7t-1 -7q0 -18 0.5 -68.5t0 -77t-2 -67t-6 -72.5t-12.5 -59q5 -27 -19 -82q-8 -13 -21 -30.5t-18 -24.5q-6 -8 -13.5 -15.5t-10.5 -10t-16 -11.5t-15 -10l-18 -17q-31 -18 -41 -22q-46 -25 -97 -37q-10 -2 -35 -8.5t-42 -9t-35 -1.5 q-6 1 -22 5t-25 4q-49 4 -54 6l-45 20q-19 13 -38 23l-37 24q-10 8 -31 28.5t-33 29.5l-26 37q-29 47 -39 79q-15 58 -17 99q0 15 -5.5 58.5t-2.5 70.5q0 24 2 26q0 9 1 38t1 38q0 4 -1 11t-1 10q-1 50 0.5 145.5t1.5 126.5v137q0 44 4 170v26t4 34q0 3 4 9.5t5 8.5 q10 37 26 53q4 6 9 11.5t12 11t10 8.5q2 2 12 13t13 14l12 12t14.5 13t14 10t16.5 10q12 6 50.5 21t57.5 28q8 1 31.5 5t34.5 5.5t32.5 4t36 3t34 -1t36.5 -4.5q13 -3 37 -15.5t37 -15.5l14 -4q23 -8 57.5 -30.5t45.5 -28.5q11 -12 20.5 -25.5t18 -30t13.5 -27t14 -31.5 t13 -29q23 -51 23 -177l4 -213q1 -14 1 -29.5t-0.5 -35t-0.5 -29.5q1 -13 -0.5 -55.5t2.5 -52.5zM610 412q4 22 4 92q-2 41 -2 100q-4 45 2 66q-6 18 -8.5 38.5t-3 57.5t-0.5 45q-1 13 0.5 64.5t-2.5 64.5q-1 15 0 54t0 59v55q-8 36 -35 63l-14 7q-2 2 -4.5 5.5t-5.5 4.5 q-1 1 -5.5 1t-5.5 1l-6 6q-13 8 -39 8q-74 -5 -104 -30q-14 -10 -31 -39q-4 -9 -5.5 -18t-1.5 -15t0.5 -19t0.5 -20q0 -48 -4 -227.5t0 -225.5q1 -16 3.5 -58.5t2.5 -60t-2 -59.5q-4 -112 33 -158q1 -3 1 -6t1 -4l27 -22q56 -13 102 -2t72 43q1 3 5 5t5 5q1 1 1 5t1 5 q1 3 3.5 5t2.5 3l4 17q1 2 2.5 5.5t2.5 5.5t1 3q4 9 2.5 35.5t-0.5 34.5zM756 1593q-84 -7 -217 4q-21 84 -9 220q2 2 5 3.5t4.5 2.5t1.5 4q119 11 180 6q22 0 39 -10q2 -18 3.5 -39t1.5 -35t-1 -41t-1.5 -35.5t-3.5 -41.5t-3 -38zM205 1595q-3 3 -9.5 4.5t-9.5 4.5 q-11 93 4 213q12 6 27.5 9t27 3.5t32.5 1t30 0.5q55 4 96 -4q5 -12 7.5 -26.5t2.5 -33v-29t-1.5 -33t-1.5 -26.5v-30t-4 -37q4 -11 0 -17q-6 -8 -41 -8q-103 -4 -160 8z" />
<glyph unicode="&#xd7;" horiz-adv-x="827" d="M578 649q-2 -2 -8 -7t-10.5 -8.5t-4.5 -4.5q0 -8 14 -11q5 -3 13 -12.5t10 -11.5q73 -73 110 -119q35 -40 43 -47q2 -2 6.5 -4.5t7.5 -4.5t3 -5q0 -6 -29 -35l-94 -96q-2 0 -5 -1t-4 -1.5t-3 0.5q-123 123 -213 208q-8 -9 -11 -16q-9 -9 -23.5 -25.5t-27.5 -29.5t-28 -23 q-17 -23 -57 -54.5t-56 -55.5q-5 1 -9.5 -4t-8.5 -5q-7 0 -24.5 22.5t-25.5 23.5q-10 14 -22 26t-30 27.5t-25 21.5q-1 4 1 9t1 8q26 35 75 84q58 72 72 86q5 6 25 22t28 29q-12 13 -80 76q-16 14 -43.5 45t-42.5 45l-22 18l-5 5l-4.5 4.5l-4 4t-3.5 4.5t-2 4.5t-1 5t1 5.5 l2 6q64 78 119 117q2 0 7 -1.5t8 -0.5q30 -30 106 -97t113 -108q5 7 15 18.5t15 18.5q119 96 181 184q8 -4 20 -15l12 -11q37 -29 64 -56q22 -19 41 -41q-3 -14 -9 -24.5t-17 -23.5t-15 -19q-47 -56 -145 -150z" />
<glyph unicode="&#xd8;" horiz-adv-x="1144" d="M86 326q-3 1 -6 4.5t-6 3.5q0 23 -4 73t-5 80t3 70q18 7 37.5 18t43 25.5t37.5 22.5q-12 50 -4 94q9 138 6 280q-4 57 5 93q1 14 0 37t0 34q3 34 18 64q7 13 20.5 41.5t20.5 42.5q16 27 37 45t55 37q66 40 166 49q8 1 23 2.5t27.5 2.5t23.5 1q67 3 153 -25q30 -10 47 -24 q15 -3 41 -23q9 -7 47 -45q19 -19 41 -61l17 -51q16 -39 24 -74q4 -12 2.5 -51t-0.5 -50q8 0 16 3.5t18.5 10.5l13.5 9q18 11 47 22q3 0 6.5 -2t7.5 -2q2 -13 6 -38.5t5.5 -43t0.5 -38.5q-4 -69 -12 -103q-11 -6 -41 -21.5t-45 -25.5l-4 -4q-2 -2 -2 -4v-2q-3 -3 -8.5 -3 t-6.5 -3q-3 -25 -3.5 -51.5t0.5 -65.5t1 -57v-52q0 -8 -1 -23.5t-1 -23.5q1 -11 5 -52.5t4 -51t2 -52.5t-2 -57l-7 -39q-3 -38 -16 -47v-22q-4 -7 -12.5 -22t-15 -25.5t-13.5 -18.5q-4 -6 -10 -12t-14 -13t-13 -12t-19 -18.5t-21 -19.5t-19.5 -14.5t-24.5 -14.5 q-37 -21 -94.5 -34t-112.5 -13q-22 0 -46 3.5t-40 8t-42.5 12t-39.5 10.5q-39 13 -43 15q-3 2 -6.5 3.5t-5.5 2.5t-4 2.5t-3.5 3t-3.5 4.5t-3 6q-70 40 -104 121.5t-46 202.5q-88 -48 -98 -55zM453 1090q0 -8 -3.5 -32t-3 -33t4.5 -32q-7 -27 -7 -73q0 -23 2.5 -78.5 t2.5 -81.5q41 24 123.5 67.5t123.5 67.5q-1 22 6.5 75t4.5 81q-13 87 -33 112q-30 34 -70 37q-59 6 -100 -17.5t-55 -68.5q2 -2 2 -12q0 -6 -2 -8q4 0 4 -4zM702 340v45q-3 49 -1 149t-1 132q-146 -87 -254 -140q0 -97 3 -161q0 -60 14 -78q4 -7 17 -16.5t18 -16.5 q32 -16 53 -18q29 -6 68.5 -1t58.5 21q4 3 7.5 7.5t5.5 8t4 10t3 10t1.5 11.5t1 11.5t1 13t0.5 12.5z" />
<glyph unicode="&#xd9;" d="M631 8l-37 -6q-98 -22 -191 -10q-26 2 -73 14q-12 5 -49 23q-7 5 -25 13t-25 13t-20.5 20t-26.5 23q-8 11 -26.5 34t-30 41.5t-18.5 39.5q-2 8 -6.5 22.5t-7 26.5t-3.5 23q-8 63 -8 151q0 1 6 70q0 11 -3 33.5t-3 40t6 28.5q-4 1 -5 5.5t0 16t1 13.5q0 33 -1.5 90.5 t-1.5 108.5t3 106q3 47 3 101t-1.5 120t-1.5 101q4 114 0 149q1 2 4.5 6t3.5 9l94 16q28 3 80.5 -4t67.5 -8q10 -10 7 -43.5t1 -44.5q-4 -3 -2.5 -11.5t-1.5 -11.5q4 -20 4 -62.5v-52.5q0 -14 0.5 -39t0.5 -46t-1 -40q0 -34 1 -114.5t1 -126.5l-6 -252q-1 -38 4 -182 q0 -9 -0.5 -27.5t-0.5 -28t2 -23.5t7 -26q20 -51 78 -63q47 -7 55 -6q1 0 19 6q3 1 9 1t9 1q22 5 44 19t28 30q3 4 4 9t1 12t1 10q9 31 0 49q5 37 0 166q-2 51 -2 164l1 3q1 2 1.5 4t-0.5 3.5t-4 1.5q0 3 3 2q1 0 1 1v3q0 32 1 69.5t2.5 83.5t2.5 72v139q0 27 -1 79.5 t-1 82.5q0 5 2 15.5t2 15.5t-1 14.5t-1 14.5l4 123q20 9 54 12q46 5 53 4q57 17 141 -12q1 -2 1 -6t1 -6t4 -3q3 -58 -3 -159.5t-3 -155.5q2 -39 2 -115q0 -41 -1 -115t-1 -112q0 -19 1.5 -62t1 -77t-4.5 -66q5 -16 1 -81t-3 -85q5 -68 4 -84q-1 -2 -2 -7t-3 -11t-5 -12 q-3 -10 -8 -39.5t-9 -44.5q-1 -2 -3.5 -6t-2.5 -7q-1 -1 -1 -5t-1 -7l-12 -16q-24 -40 -45 -56q-32 -32 -39 -37q-3 -3 -12 -6t-13 -6q-3 -3 -10 -7.5t-10 -6.5l-25 -10zM342 1655q-16 22 -43 65.5t-43 65.5q-24 34 -37 67q2 1 6 3.5t5.5 3t5.5 -1.5q19 4 43 5.5t40.5 1.5 t45 -0.5t38.5 -0.5q20 0 35 6h2q40 -74 49 -98q19 -28 39.5 -86t30.5 -78q-1 -2 0.5 -6.5t2 -6.5t-2.5 -4q3 -1 -2 -2q-7 -1 -8 -2q-3 -1 -7 -1t-7 1t-3 2q-16 -3 -38.5 -3.5t-54 0.5t-40.5 1q-3 0 -1 -2.5t-1 -3.5q-3 6 -10 8q0 4 -2.5 8t-7 8t-6.5 7q-7 12 -29 43z M100 1421q0 3 -2 3.5t-4 0t-2 -1.5q2 -2 8 -2z" />
<glyph unicode="&#xda;" d="M631 8l-37 -6q-98 -22 -191 -10q-26 2 -73 14q-12 5 -49 23q-7 5 -25 13t-25 13t-20.5 20t-26.5 23q-8 11 -26.5 34t-30 41.5t-18.5 39.5q-2 8 -6.5 22.5t-7 26.5t-3.5 23q-8 63 -8 151q0 1 6 70q0 11 -3 33.5t-3 40t6 28.5q-4 1 -5 5.5t0 16t1 13.5q0 33 -1.5 90.5 t-1.5 108.5t3 106q3 47 3 101t-1.5 120t-1.5 101q4 114 0 149q1 2 4.5 6t3.5 9l94 16q28 3 80.5 -4t67.5 -8q10 -10 7 -43.5t1 -44.5q-4 -3 -2.5 -11.5t-1.5 -11.5q4 -20 4 -62.5v-52.5q0 -14 0.5 -39t0.5 -46t-1 -40q0 -34 1 -114.5t1 -126.5l-6 -252q-1 -38 4 -182 q0 -9 -0.5 -27.5t-0.5 -28t2 -23.5t7 -26q20 -51 78 -63q47 -7 55 -6q1 0 19 6q3 1 9 1t9 1q22 5 44 19t28 30q3 4 4 9t1 12t1 10q9 31 0 49q5 37 0 166q-2 51 -2 164l1 3q1 2 1.5 4t-0.5 3.5t-4 1.5q0 3 3 2q1 0 1 1v3q0 32 1 69.5t2.5 83.5t2.5 72v139q0 27 -1 79.5 t-1 82.5q0 5 2 15.5t2 15.5t-1 14.5t-1 14.5l4 123q20 9 54 12q46 5 53 4q57 17 141 -12q1 -2 1 -6t1 -6t4 -3q3 -58 -3 -159.5t-3 -155.5q2 -39 2 -115q0 -41 -1 -115t-1 -112q0 -19 1.5 -62t1 -77t-4.5 -66q5 -16 1 -81t-3 -85q5 -68 4 -84q-1 -2 -2 -7t-3 -11t-5 -12 q-3 -10 -8 -39.5t-9 -44.5q-1 -2 -3.5 -6t-2.5 -7q-1 -1 -1 -5t-1 -7l-12 -16q-24 -40 -45 -56q-32 -32 -39 -37q-3 -3 -12 -6t-13 -6q-3 -3 -10 -7.5t-10 -6.5l-25 -10zM719 1862q7 -10 5 -15.5t-9 -17.5t-8 -21q-10 -15 -52.5 -87.5t-72.5 -104.5q-2 -5 -19 -33 q-23 3 -50.5 3.5t-65 -0.5t-50.5 -1q-6 17 -10 23q16 26 35 78q6 9 14 33t17 32q2 9 6.5 19t8.5 16t10.5 16.5t10.5 16.5q6 26 21 41q20 1 60.5 4.5t66.5 3.5q49 0 70 -8q3 0 6 1t6 1zM100 1421q0 3 -2 3.5t-4 0t-2 -1.5q2 -2 8 -2z" />
<glyph unicode="&#xdb;" d="M631 8l-37 -6q-98 -22 -191 -10q-26 2 -73 14q-12 5 -49 23q-7 5 -25 13t-25 13t-20.5 20t-26.5 23q-8 11 -26.5 34t-30 41.5t-18.5 39.5q-2 8 -6.5 22.5t-7 26.5t-3.5 23q-8 63 -8 151q0 1 6 70q0 11 -3 33.5t-3 40t6 28.5q-4 1 -5 5.5t0 16t1 13.5q0 33 -1.5 90.5 t-1.5 108.5t3 106q3 47 3 101t-1.5 120t-1.5 101q4 114 0 149q1 2 4.5 6t3.5 9l94 16q28 3 80.5 -4t67.5 -8q10 -10 7 -43.5t1 -44.5q-4 -3 -2.5 -11.5t-1.5 -11.5q4 -20 4 -62.5v-52.5q0 -14 0.5 -39t0.5 -46t-1 -40q0 -34 1 -114.5t1 -126.5l-6 -252q-1 -38 4 -182 q0 -9 -0.5 -27.5t-0.5 -28t2 -23.5t7 -26q20 -51 78 -63q47 -7 55 -6q1 0 19 6q3 1 9 1t9 1q22 5 44 19t28 30q3 4 4 9t1 12t1 10q9 31 0 49q5 37 0 166q-2 51 -2 164l1 3q1 2 1.5 4t-0.5 3.5t-4 1.5q0 3 3 2q1 0 1 1v3q0 32 1 69.5t2.5 83.5t2.5 72v139q0 27 -1 79.5 t-1 82.5q0 5 2 15.5t2 15.5t-1 14.5t-1 14.5l4 123q20 9 54 12q46 5 53 4q57 17 141 -12q1 -2 1 -6t1 -6t4 -3q3 -58 -3 -159.5t-3 -155.5q2 -39 2 -115q0 -41 -1 -115t-1 -112q0 -19 1.5 -62t1 -77t-4.5 -66q5 -16 1 -81t-3 -85q5 -68 4 -84q-1 -2 -2 -7t-3 -11t-5 -12 q-3 -10 -8 -39.5t-9 -44.5q-1 -2 -3.5 -6t-2.5 -7q-1 -1 -1 -5t-1 -7l-12 -16q-24 -40 -45 -56q-32 -32 -39 -37q-3 -3 -12 -6t-13 -6q-3 -3 -10 -7.5t-10 -6.5l-25 -10zM264 1696l6 8l13 14q8 9 21.5 30t21.5 30l6 4l6 14q3 6 11.5 14t10.5 11q1 1 1 4t1 4q5 15 19 29 q19 11 51 6q4 4 8.5 4.5t11 -1t9.5 -1.5q53 0 76 -6l6 -9q3 0 4 1.5t4 2.5q41 -55 139 -178l23 -35q1 -2 7 -9t8.5 -11.5t5 -11t0.5 -11.5t-9 -10q-2 2 0 4q-1 0 -3 -2t-3 -2q-6 -3 -12.5 -3t-13 1.5t-9.5 1.5q-22 3 -60.5 0.5t-60.5 1.5q-3 0 -5 -2t-5 -2l-12 15 q-12 16 -40 40t-40 39q-44 -26 -88 -84q-3 -4 -5.5 -0.5t-5.5 2.5q-3 0 -2 -3t-2 -3q-15 -5 -78.5 -0.5t-72.5 4.5q-5 23 2 29q6 0 6 4q1 1 1 4t1 6l25 27q2 3 9.5 14t12.5 15zM100 1421q0 3 -2 3.5t-4 0t-2 -1.5q2 -2 8 -2z" />
<glyph unicode="&#xdc;" d="M631 8l-37 -6q-98 -22 -191 -10q-26 2 -73 14q-12 5 -49 23q-7 5 -25 13t-25 13t-20.5 20t-26.5 23q-8 11 -26.5 34t-30 41.5t-18.5 39.5q-2 8 -6.5 22.5t-7 26.5t-3.5 23q-8 63 -8 151q0 1 6 70q0 11 -3 33.5t-3 40t6 28.5q-4 1 -5 5.5t0 16t1 13.5q0 33 -1.5 90.5 t-1.5 108.5t3 106q3 47 3 101t-1.5 120t-1.5 101q4 114 0 149q1 2 4.5 6t3.5 9l94 16q28 3 80.5 -4t67.5 -8q10 -10 7 -43.5t1 -44.5q-4 -3 -2.5 -11.5t-1.5 -11.5q4 -20 4 -62.5v-52.5q0 -14 0.5 -39t0.5 -46t-1 -40q0 -34 1 -114.5t1 -126.5l-6 -252q-1 -38 4 -182 q0 -9 -0.5 -27.5t-0.5 -28t2 -23.5t7 -26q20 -51 78 -63q47 -7 55 -6q1 0 19 6q3 1 9 1t9 1q22 5 44 19t28 30q3 4 4 9t1 12t1 10q9 31 0 49q5 37 0 166q-2 51 -2 164l1 3q1 2 1.5 4t-0.5 3.5t-4 1.5q0 3 3 2q1 0 1 1v3q0 32 1 69.5t2.5 83.5t2.5 72v139q0 27 -1 79.5 t-1 82.5q0 5 2 15.5t2 15.5t-1 14.5t-1 14.5l4 123q20 9 54 12q46 5 53 4q57 17 141 -12q1 -2 1 -6t1 -6t4 -3q3 -58 -3 -159.5t-3 -155.5q2 -39 2 -115q0 -41 -1 -115t-1 -112q0 -19 1.5 -62t1 -77t-4.5 -66q5 -16 1 -81t-3 -85q5 -68 4 -84q-1 -2 -2 -7t-3 -11t-5 -12 q-3 -10 -8 -39.5t-9 -44.5q-1 -2 -3.5 -6t-2.5 -7q-1 -1 -1 -5t-1 -7l-12 -16q-24 -40 -45 -56q-32 -32 -39 -37q-3 -3 -12 -6t-13 -6q-3 -3 -10 -7.5t-10 -6.5l-25 -10zM756 1593q-84 -7 -217 4q-21 84 -9 220q2 2 5 3.5t4.5 2.5t1.5 4q119 11 180 6q22 0 39 -10 q2 -18 3.5 -39t1.5 -35t-1 -41t-1.5 -35.5t-3.5 -41.5t-3 -38zM205 1595q-3 3 -9.5 4.5t-9.5 4.5q-11 93 4 213q12 6 27.5 9t27 3.5t32.5 1t30 0.5q55 4 96 -4q5 -12 7.5 -26.5t2.5 -33v-29t-1.5 -33t-1.5 -26.5v-30t-4 -37q4 -11 0 -17q-6 -8 -41 -8q-103 -4 -160 8z M100 1421q0 3 -2 3.5t-4 0t-2 -1.5q2 -2 8 -2z" />
<glyph unicode="&#xdd;" horiz-adv-x="1032" d="M963 1436q3 -3 4.5 -6t2 -6.5t0.5 -7t-1 -8.5l-1.5 -7.5t-3 -8.5t-3.5 -8t-3.5 -8.5t-3.5 -7.5l-6 -10q-6 -19 -10 -25q-10 -25 -57 -133l-15 -24q-1 -3 -9.5 -29.5t-14.5 -40.5q-12 -22 -29 -66t-27 -65q-25 -54 -108 -260q-4 -9 -13 -29t-15.5 -35t-10.5 -33 q-1 -35 2.5 -140.5t-0.5 -141.5q-4 -98 -4 -152q0 -14 3.5 -95t-1.5 -89q-4 -3 -9 -3.5t-11 0.5t-9 1q-14 -1 -51 -6.5t-59 -5.5l-60 4q-45 5 -55 10q0 55 2 88q0 16 2 46t2 46l-6 56q-7 155 4 397l-51 119q-8 40 -31 84q-74 161 -137 340q-10 33 -37.5 90t-34.5 73 q-15 47 -37 84q5 5 9 17q134 10 245 0q15 -3 27 0q26 -67 92 -262q25 -78 31 -91q7 -18 25.5 -57.5t25.5 -60.5q14 27 36 77t32 70l8 27q29 67 106 291q84 14 265 2zM762 1862q7 -10 5 -15.5t-9 -17.5t-8 -21q-10 -15 -52.5 -87.5t-72.5 -104.5q-2 -5 -19 -33 q-23 3 -50.5 3.5t-65 -0.5t-50.5 -1q-6 17 -10 23q16 26 35 78q6 9 14 33t17 32q2 9 6.5 19t8.5 16l11 16.5t10 16.5q6 26 21 41q20 1 60.5 4.5t66.5 3.5q49 0 70 -8q3 0 6 1t6 1z" />
<glyph unicode="&#xde;" horiz-adv-x="968" d="M223 0l-35 6q-7 1 -19 5t-19 5q-3 1 -12.5 -0.5t-10.5 2.5q5 52 7.5 118.5t3 101t0 126t-0.5 105.5q-1 58 -4.5 185t-4 191.5t2.5 190.5q2 52 -1 189.5t5 173.5q-3 -2 -3 -1.5t1 2.5q4 10 4 17q1 6 5 15l3 8q54 16 116 15.5t118 -13.5q0 -2 6 -8l4 -4h2q4 -10 0 -44 q-1 -14 1.5 -43.5t2.5 -42.5v-81q6 -3 12 -3t12 1.5t9 1.5q120 12 234 -33l26 -6q2 -1 13.5 -9t19.5 -12q57 -33 94 -63q68 -107 84 -197q8 -49 4 -123q-1 -13 0.5 -58.5t-2.5 -55.5l-16 -99q-4 -18 -15.5 -48.5t-13.5 -37.5q-6 -27 -43 -74q-72 -96 -207 -116 q-41 -6 -120.5 -9.5t-102.5 -5.5q-3 -27 -2 -84t-2 -90q0 -12 -2 -31t-2 -30q5 -19 4 -23q-8 -6 -30 -8t-30 -4q-1 0 -7 -3t-9 -3q-7 0 -19.5 1t-19.5 1q-7 1 -20.5 1t-20.5 1zM393 770q0 -21 -2 -60.5t-2 -58.5q0 -100 6 -131q0 -4 -6 -10q40 6 77.5 3t77.5 3.5t62 28.5 q25 28 31 73q6 58 6 125q0 88 -6 123q-7 34 -41 78q-34 26 -81 32.5t-116 4.5q-4 -25 -5 -59.5t-0.5 -80.5t-0.5 -71z" />
<glyph unicode="&#xdf;" horiz-adv-x="1071" d="M395 27q-17 -19 -84 -19q-11 -1 -40.5 -3.5t-41.5 -2.5t-41 2q-3 0 -8 2t-8 2q-4 1 -10 1t-9 0.5t-7 2t-7 4.5q-4 84 -5.5 234t-4.5 223v105q0 20 1.5 54t1.5 62t-3 54q0 5 1.5 26.5t0.5 34.5q0 3 -1.5 7t-2.5 7q-5 4 -1.5 50t3.5 53q0 16 -1 49t-1 51q-6 98 23 195 q30 77 96 143q48 48 162 76q34 6 102 10q137 8 262 -74q6 -10 22.5 -22.5t20.5 -16.5q20 -19 35.5 -50t22.5 -53t18.5 -68t15.5 -60q-1 -10 -3 -63t-11 -80q-8 -25 -45 -78q-23 -28 -55 -51q15 -10 26.5 -23.5t25.5 -35t21 -30.5q43 -67 47 -75q7 -16 11.5 -33t7.5 -38.5 t4.5 -34t4 -41t3.5 -36.5q12 -97 6 -147q-6 -42 -6 -45q0 -2 1.5 -7.5t0.5 -8.5q0 -18 -8 -31q-3 -10 -7 -20t-10.5 -22t-9.5 -20q-40 -93 -116 -145q-26 -17 -107 -45l-24 -4q-58 -15 -70 -15q-7 0 -22 1.5t-23 1.5q-43 0 -57 16q0 10 -6 69.5t-5 88.5q1 3 1 10t1 12t4 6 q6 6 29 0q19 5 57.5 6.5t55.5 6.5q37 12 49 49q8 25 9.5 51.5t-0.5 62.5t-1 56q3 58 0 118q-5 74 -12 91l-15 14l-12 16q-3 3 -9 7.5t-9 7.5q-14 6 -30 9.5t-27.5 5t-33 4t-32.5 3.5q-3 6 -14 6q1 20 -2.5 62.5t-0.5 68.5q0 5 1.5 16t1.5 19q1 9 0 18.5t0.5 19t5.5 13.5 q3 3 7 3.5t11 0.5t12 1q40 2 93 30q23 20 26 70q5 100 -4 127q-5 12 -21 32t-28 27q-11 6 -22.5 7t-28.5 -1t-27 -2h-35q-24 -3 -45 -16q-7 -3 -16 -15.5t-17 -17.5q-16 -47 -16 -155q2 -47 -2 -156q0 -8 -1 -23.5t-1 -23.5q1 -28 1 -59t-0.5 -70t-0.5 -62q0 -83 4 -106 q4 -31 1.5 -121.5t-1.5 -120.5l4 -104q3 -24 2 -66t2 -65z" />
<glyph unicode="&#xe0;" horiz-adv-x="1034" d="M961 57l4 -28q1 -3 3.5 -8.5t2.5 -8t-2 -8.5q-165 -11 -244 -6q-7 7 -10 8q-1 17 -4 32t-9 33.5t-8 28.5l-14 56t-15 65t-10 58q-56 3 -147.5 -2t-130.5 -5q-5 -21 -26.5 -122t-39.5 -152q-160 -13 -241 -2q-6 5 -2 27q8 38 26 161q9 34 12 66q5 24 13.5 72.5t13.5 72.5 l21 76q0 19 12 51q2 17 8 69t10 79l17 63l6 35q1 3 5 10.5t4.5 10l2 10t-1.5 10.5q1 3 4 5t4 5q3 27 15.5 93t17.5 98q2 22 14 53q0 20 11 53q6 10 10 37q3 19 8 57.5t8 55.5l6 28q3 10 8 39.5t9 44.5q1 6 3.5 17t4.5 18t5.5 16t8.5 15q110 21 303 2q3 0 5.5 -3.5t5.5 -2.5 q5 -41 39 -195l10 -65l16 -60q4 -17 41 -190q12 -62 39 -181t39 -184q10 -48 20 -114q3 -17 14 -48.5t15 -46.5q4 -17 18 -88.5t23 -109.5l10 -52zM385 1655q-15 22 -43 65.5t-43 65.5q-24 34 -37 67q2 1 6 3.5t5.5 3t5.5 -1.5q19 4 43 5.5t40.5 1.5t45 -0.5t38.5 -0.5 q20 0 35 6h2q40 -74 49 -98q19 -28 39.5 -86t30.5 -78q-1 -2 0.5 -6.5t2 -6.5t-2.5 -4q3 -1 -2 -2q-7 -1 -8 -2q-3 -1 -7 -1t-7 1t-3 2q-16 -3 -38.5 -3.5t-54 0.5t-40.5 1q-3 0 -1 -2.5t-1 -3.5q-3 6 -10 8q0 4 -2.5 8t-7 8t-6.5 7q-7 12 -29 43zM420 530q43 -2 63 -1.5 t61.5 3t57.5 3.5q-45 224 -53 256q-3 12 -21 69t-18 84q-26 -144 -90 -414z" />
<glyph unicode="&#xe1;" horiz-adv-x="1034" d="M961 57l4 -28q1 -3 3.5 -8.5t2.5 -8t-2 -8.5q-165 -11 -244 -6q-7 7 -10 8q-1 17 -4 32t-9 33.5t-8 28.5l-14 56t-15 65t-10 58q-56 3 -147.5 -2t-130.5 -5q-5 -21 -26.5 -122t-39.5 -152q-160 -13 -241 -2q-6 5 -2 27q8 38 26 161q9 34 12 66q5 24 13.5 72.5t13.5 72.5 l21 76q0 19 12 51q2 17 8 69t10 79l17 63l6 35q1 3 5 10.5t4.5 10l2 10t-1.5 10.5q1 3 4 5t4 5q3 27 15.5 93t17.5 98q2 22 14 53q0 20 11 53q6 10 10 37q3 19 8 57.5t8 55.5l6 28q3 10 8 39.5t9 44.5q1 6 3.5 17t4.5 18t5.5 16t8.5 15q110 21 303 2q3 0 5.5 -3.5t5.5 -2.5 q5 -41 39 -195l10 -65l16 -60q4 -17 41 -190q12 -62 39 -181t39 -184q10 -48 20 -114q3 -17 14 -48.5t15 -46.5q4 -17 18 -88.5t23 -109.5l10 -52zM762 1862q7 -10 5 -15.5t-9 -17.5t-8 -21q-10 -15 -52.5 -87.5t-72.5 -104.5q-2 -5 -19 -33q-23 3 -50.5 3.5t-65 -0.5 t-50.5 -1q-6 17 -10 23q16 26 35 78q6 9 14 33t17 32q2 9 6.5 19t8.5 16l11 16.5t10 16.5q6 26 21 41q20 1 60.5 4.5t66.5 3.5q49 0 70 -8q3 0 6 1t6 1zM420 530q43 -2 63 -1.5t61.5 3t57.5 3.5q-45 224 -53 256q-3 12 -21 69t-18 84q-26 -144 -90 -414z" />
<glyph unicode="&#xe2;" horiz-adv-x="1034" d="M961 57l4 -28q1 -3 3.5 -8.5t2.5 -8t-2 -8.5q-165 -11 -244 -6q-7 7 -10 8q-1 17 -4 32t-9 33.5t-8 28.5l-14 56t-15 65t-10 58q-56 3 -147.5 -2t-130.5 -5q-5 -21 -26.5 -122t-39.5 -152q-160 -13 -241 -2q-6 5 -2 27q8 38 26 161q9 34 12 66q5 24 13.5 72.5t13.5 72.5 l21 76q0 19 12 51q2 17 8 69t10 79l17 63l6 35q1 3 5 10.5t4.5 10l2 10t-1.5 10.5q1 3 4 5t4 5q3 27 15.5 93t17.5 98q2 22 14 53q0 20 11 53q6 10 10 37q3 19 8 57.5t8 55.5l6 28q3 10 8 39.5t9 44.5q1 6 3.5 17t4.5 18t5.5 16t8.5 15q110 21 303 2q3 0 5.5 -3.5t5.5 -2.5 q5 -41 39 -195l10 -65l16 -60q4 -17 41 -190q12 -62 39 -181t39 -184q10 -48 20 -114q3 -17 14 -48.5t15 -46.5q4 -17 18 -88.5t23 -109.5l10 -52zM311 1696l6 8l13 14q8 9 21.5 30t21.5 30l6 4l6 14q3 6 12 14t11 11q1 1 1 4t1 4q6 17 18 29q19 11 51 6q4 4 8.5 4.5t11 -1 t9.5 -1.5q53 0 76 -6l6 -9q3 0 4 1.5t4 2.5q41 -55 139 -178l23 -35q1 -2 7 -9t8.5 -11.5t5 -11t0.5 -11.5t-9 -10q-2 2 0 4q-1 0 -3 -2t-3 -2q-6 -3 -12.5 -3t-13 1.5t-9.5 1.5q-22 3 -60.5 0.5t-60.5 1.5q-3 0 -5 -2t-5 -2l-12 15q-13 16 -40 40t-40 39q-44 -26 -88 -84 q-3 -4 -5 -0.5t-5 2.5q-3 0 -2 -3t-2 -3q-15 -5 -79 -0.5t-73 4.5q-4 23 2 29q6 0 6 4q1 1 1 4t1 6l25 27q2 3 9.5 14t12.5 15zM420 530q43 -2 63 -1.5t61.5 3t57.5 3.5q-45 224 -53 256q-3 12 -21 69t-18 84q-26 -144 -90 -414z" />
<glyph unicode="&#xe3;" horiz-adv-x="1034" d="M961 57l4 -28q1 -3 3.5 -8.5t2.5 -8t-2 -8.5q-165 -11 -244 -6q-7 7 -10 8q-1 17 -4 32t-9 33.5t-8 28.5l-14 56t-15 65t-10 58q-56 3 -147.5 -2t-130.5 -5q-5 -21 -26.5 -122t-39.5 -152q-160 -13 -241 -2q-6 5 -2 27q8 38 26 161q9 34 12 66q5 24 13.5 72.5t13.5 72.5 l21 76q0 19 12 51q2 17 8 69t10 79l17 63l6 35q1 3 5 10.5t4.5 10l2 10t-1.5 10.5q1 3 4 5t4 5q3 27 15.5 93t17.5 98q2 22 14 53q0 20 11 53q6 10 10 37q3 19 8 57.5t8 55.5l6 28q3 10 8 39.5t9 44.5q1 6 3.5 17t4.5 18t5.5 16t8.5 15q110 21 303 2q3 0 5.5 -3.5t5.5 -2.5 q5 -41 39 -195l10 -65l16 -60q4 -17 41 -190q12 -62 39 -181t39 -184q10 -48 20 -114q3 -17 14 -48.5t15 -46.5q4 -17 18 -88.5t23 -109.5l10 -52zM674 1821q52 10 117 6q3 -3 6 -12t6 -13q-3 -17 -3 -47t-3.5 -53.5t-14.5 -40.5q-7 -17 -41 -41q-22 -15 -43 -21 q-21 -7 -28 -8q-51 -9 -105 8q-8 4 -26 18t-27 19q-26 20 -56 26t-59 -9q-13 -8 -25 -33.5t-16 -30.5q-11 0 -34.5 -2t-44 -2t-37.5 4q-1 6 -4 15.5t-3 17.5q0 5 1.5 14.5t1.5 14.5q0 46 6 69q8 26 30 47q48 59 115 66q17 1 76 -10q10 -2 18.5 -4.5t17 -6t13 -5.5t13.5 -7.5 t12 -7.5t14 -9t14 -9q2 -1 12 -5.5t14 -6.5t14 -5.5t14 -2.5t12 1q28 9 43 66zM420 530q43 -2 63 -1.5t61.5 3t57.5 3.5q-45 224 -53 256q-3 12 -21 69t-18 84q-26 -144 -90 -414z" />
<glyph unicode="&#xe4;" horiz-adv-x="1034" d="M961 57l4 -28q1 -3 3.5 -8.5t2.5 -8t-2 -8.5q-165 -11 -244 -6q-7 7 -10 8q-1 17 -4 32t-9 33.5t-8 28.5l-14 56t-15 65t-10 58q-56 3 -147.5 -2t-130.5 -5q-5 -21 -26.5 -122t-39.5 -152q-160 -13 -241 -2q-6 5 -2 27q8 38 26 161q9 34 12 66q5 24 13.5 72.5t13.5 72.5 l21 76q0 19 12 51q2 17 8 69t10 79l17 63l6 35q1 3 5 10.5t4.5 10l2 10t-1.5 10.5q1 3 4 5t4 5q3 27 15.5 93t17.5 98q2 22 14 53q0 20 11 53q6 10 10 37q3 19 8 57.5t8 55.5l6 28q3 10 8 39.5t9 44.5q1 6 3.5 17t4.5 18t5.5 16t8.5 15q110 21 303 2q3 0 5.5 -3.5t5.5 -2.5 q5 -41 39 -195l10 -65l16 -60q4 -17 41 -190q12 -62 39 -181t39 -184q10 -48 20 -114q3 -17 14 -48.5t15 -46.5q4 -17 18 -88.5t23 -109.5l10 -52zM803 1593q-84 -7 -217 4q-20 81 -8 220q2 2 5 3.5t4 2.5t1 4q119 11 180 6q22 0 39 -10q2 -18 3.5 -39t1.5 -35t-1 -41 t-1.5 -35.5t-3.5 -41.5t-3 -38zM252 1595q-3 3 -9.5 4.5t-9.5 4.5q-11 89 5 213q12 6 27.5 9t26.5 3.5t32 1t30 0.5q55 4 97 -4q6 -15 8 -37.5t2 -34.5t-2 -43t-2 -33q-1 -6 -1 -30t-3 -37q4 -11 0 -17q-6 -8 -41 -8q-103 -4 -160 8zM420 530q43 -2 63 -1.5t61.5 3t57.5 3.5 q-45 224 -53 256q-3 12 -21 69t-18 84q-26 -144 -90 -414z" />
<glyph unicode="&#xe5;" horiz-adv-x="1034" d="M961 57l4 -28q1 -3 3.5 -8.5t2.5 -8t-2 -8.5q-165 -11 -244 -6q-7 7 -10 8q-1 17 -4 32t-9 33.5t-8 28.5l-14 56t-15 65t-10 58q-56 3 -147.5 -2t-130.5 -5q-5 -21 -26.5 -122t-39.5 -152q-160 -13 -241 -2q-6 5 -2 27q8 38 26 161q9 34 12 66q5 24 13.5 72.5t13.5 72.5 l21 76q0 19 12 51q2 17 8 69t10 79l17 63l6 35q1 3 5 10.5t4.5 10l2 10t-1.5 10.5q1 3 4 5t4 5q3 27 15.5 93t17.5 98q2 22 14 53q0 20 11 53q6 10 10 37q3 19 8 57.5t8 55.5l6 28q3 10 8 39.5t9 44.5q1 6 3.5 17t4.5 18t5.5 16t8.5 15q110 21 303 2q3 0 5.5 -3.5t5.5 -2.5 q5 -41 39 -195l10 -65l16 -60q4 -17 41 -190q12 -62 39 -181t39 -184q10 -48 20 -114q3 -17 14 -48.5t15 -46.5q4 -17 18 -88.5t23 -109.5l10 -52zM698 1821q19 -56 0.5 -112.5t-57.5 -90.5q-42 -37 -100.5 -44.5t-106.5 21.5q-28 12 -51 29q-46 40 -57 123q-3 12 0 33 q9 54 39 98l14 14q29 40 102 58q7 3 22.5 4t22.5 4q4 -4 8.5 -5t11 -0.5t11.5 -0.5q11 -2 47 -17q31 -18 57.5 -49t36.5 -65zM420 530q43 -2 63 -1.5t61.5 3t57.5 3.5q-45 224 -53 256q-3 12 -21 69t-18 84q-26 -144 -90 -414zM569 1735q7 25 6.5 46t-9 34t-19.5 8 q-3 0 -17 0.5t-20 0t-17 -3t-20 -8.5q-24 -74 2 -92q12 -14 32.5 -11t37.5 11t24 15z" />
<glyph unicode="&#xe6;" horiz-adv-x="1554" d="M920 262q99 0 277 -4.5t233 -5.5q4 -17 5.5 -34.5t1 -38t-1.5 -34t-4 -39t-4 -36.5q-1 -12 -0.5 -21.5t-1.5 -21t-8 -21.5q-26 0 -116.5 1.5t-141.5 0.5q-23 0 -68 -3t-69 -3q-47 0 -141 4q-16 0 -45 -1.5t-52.5 -1.5t-44.5 3q-6 -3 -13.5 -3.5t-17.5 0.5t-14 1 q-2 0 -10 -1.5t-11.5 -2t-8.5 0.5t-9 5q-3 41 -1 132t-1 138q-23 0 -65.5 0.5t-67.5 0.5t-59 -1t-62 -4q-10 -29 -32 -133q-5 -18 -15.5 -65.5t-19.5 -69.5q-26 1 -128.5 -1t-125.5 3q-1 2 -1 5t-1 4t-4 1q23 65 46.5 190t26.5 140q10 52 19 82q11 36 20 75.5t19 89.5t16 75 q7 29 20 85.5t19 82.5q15 69 42 207t42 208q2 10 6 27t6.5 30t3.5 27l4 41q11 34 9 60q17 4 108 0t113 -4q247 -8 520 -11q36 -1 72 0t79 3t68 3q8 0 21 -1.5t22.5 -1.5t16.5 3q3 0 10.5 3t11.5 2q4 -7 5 -16.5t1.5 -24.5t1.5 -21q7 -64 -4 -166q-3 -23 -10 -28 q-38 3 -254 8q-146 11 -238 -6q0 -70 3 -181.5t4 -152.5q29 0 93 1.5t119.5 1.5t102.5 -3q7 -1 21.5 -1t19.5 -1q4 0 7 -2l3 -2q2 -1 7.5 0.5t7.5 -2.5q10 -54 8 -115t-13 -111q-3 -3 -12 -3t-14 -3q-36 6 -72 7t-94.5 -2t-73.5 -3h-76q-5 -1 -12.5 -3t-13.5 -3t-12 0 q0 -18 3 -166t-1 -172zM649 535q3 87 0 163q-2 80 -2 240q-3 40 0 80q5 121 0 158q-44 0 -63 -5q-9 -47 -36.5 -152t-37.5 -169q-4 -23 -25 -166q-3 -19 -14 -74t-16 -84q31 4 99 5t95 4z" />
<glyph unicode="&#xe7;" horiz-adv-x="1034" d="M854 1280q28 -45 42.5 -117.5t14.5 -144.5q0 -43 -6 -49q-4 -4 -9.5 -5.5t-8.5 -5.5q-16 -4 -64 -8q-95 -9 -170 17q-3 20 -4 74t-9 88t-30 53q-3 3 -8 5t-8 5q-26 23 -70 20q-110 -10 -131 -82l-6 -32q-1 -5 -3.5 -17t-2.5 -18q0 -2 1.5 -10t0.5 -11q0 -4 -2.5 -7 t-3.5 -7q3 -69 3 -160.5t-1.5 -203t-1.5 -162.5q0 -10 -0.5 -33t0 -36t1 -31.5t3 -35t6.5 -32.5q5 -33 16 -47q2 -2 6.5 -5.5t7 -6.5t3.5 -7q31 -18 75.5 -21.5t77.5 9.5q14 5 31 18.5t19 14.5q10 19 13 41t2 55t-1 45q0 4 2 11t2 10t-1.5 10t-1.5 12.5t3 9.5q5 12 59 19 q21 2 64 -2q94 -4 131 -21q3 -10 3 -20.5t-1.5 -23.5t-1.5 -21q-1 -18 0 -52.5t0 -50.5q-7 -52 -43 -131l-18 -41q-2 -3 -9 -9t-11 -12t-5 -12q-57 -46 -107 -69q-6 -3 -28.5 -12.5t-33.5 -14t-30.5 -9t-36.5 -5.5l5 -35q8 -2 22.5 -4t25.5 -5t21 -9q47 -29 60 -45 q17 -19 28 -70q12 -93 -22 -139q-10 -12 -39 -33q-31 -24 -90 -41q-46 -15 -78 -12q-5 0 -14.5 2t-14.5 2q-7 1 -20.5 1t-22 0.5t-19.5 3t-20 7.5q0 8 6 113q13 6 82 6t88 26q1 14 -2 24.5t-12 17.5t-17 11.5t-22.5 7.5t-23.5 4t-25.5 2.5t-22.5 2.5q-4 5 -5 11t0 17t1 13 q0 14 1 41t0.5 44.5t-3.5 35.5q-49 3 -96 24q-39 14 -59 29q-5 5 -15 12.5t-18 14.5t-14 14q-4 4 -20.5 19t-24.5 24q-29 44 -43 92q-3 12 -6 26t-5 26t-3.5 29.5t-2.5 28t-2 31.5t-1.5 29.5t-0.5 32.5v30.5v32.5v31q0 28 -4 82q0 18 3.5 48.5t4.5 41.5q1 33 -3 116.5 t-1 129.5l4 84l8 66l4 63q3 78 23 121q18 39 57 82q47 55 80 69q65 35 191 31q11 0 22.5 -1t25.5 -2.5t23 -2.5q45 0 68 -8l41 -17l43 -16q75 -34 135 -129z" />
<glyph unicode="&#xe8;" horiz-adv-x="997" d="M897 252q23 -110 4 -176q4 -14 -2 -44t-6 -32q-12 -9 -19 4l-253 4q-40 1 -113.5 -5t-106.5 -7q-40 -3 -80 -3.5t-95 0.5t-79 1q-3 3 -8 5t-8 5q-3 41 -3 121.5t-3 120.5q-1 19 0 59.5t0 59.5q-4 58 0 235q1 2 1 8t3 10q-3 4 -3 9t1.5 11t1.5 9q0 13 -2 37t-2 35 q-2 23 -2 63q-5 44 2 62q-1 26 0.5 131.5t-2.5 138.5q0 2 -2 4v6h2q2 100 2 297q10 7 10 15q98 8 270.5 5.5t272.5 0.5q32 1 90.5 -1.5t81.5 -2.5q4 0 14.5 1t18 0.5t14.5 -3.5q0 -2 0.5 -5.5t1.5 -10t2 -11.5q7 -35 8 -37q0 -12 0.5 -35t0.5 -35t-1.5 -30t-5.5 -35 q0 -31 -10 -61q-10 -3 -20.5 -3t-21.5 1.5t-17 1.5h-107q-18 0 -51 2t-49 2h-244q0 -21 2 -23v-4q0 -22 -4 -72l-2 -2q0 -19 -2.5 -61.5t-3 -65.5t3 -56t12.5 -58q26 0 80.5 2t98.5 2t77 -4q10 3 20.5 3.5t25.5 -0.5t22 -1q3 0 9 -1t9 -1t14.5 1t20 0.5t14.5 -3.5 q26 -124 4 -238q-14 -2 -43 -2q-101 4 -151 2q0 -4 -2 -2q-28 3 -60 3t-73 -1.5t-66 -1.5q-14 -234 -4 -344q43 0 192 -4.5t224 -1.5q14 0 26 6q7 -3 25 -2t25 -2q12 9 20 4zM449 1655q-16 22 -43.5 66t-43.5 65q-21 31 -36 67q2 1 5.5 3.5t5 3t5.5 -1.5q19 4 43.5 5.5 t41 1.5t45 -0.5t38.5 -0.5q20 0 35 6h2q40 -74 49 -98q19 -28 39.5 -86t30.5 -78q-1 -2 0.5 -6.5t2 -6.5t-2.5 -4q3 -1 -2 -2q-8 -1 -9 -2q-3 -1 -6.5 -1t-6.5 1t-3 2q-16 -3 -38.5 -3.5t-54 0.5t-40.5 1q-3 0 -1 -2.5t-1 -3.5q-3 6 -10 8q0 4 -3 8t-7.5 8t-6.5 7 q-11 19 -28 43z" />
<glyph unicode="&#xe9;" horiz-adv-x="997" d="M897 252q23 -110 4 -176q4 -14 -2 -44t-6 -32q-12 -9 -19 4l-253 4q-40 1 -113.5 -5t-106.5 -7q-40 -3 -80 -3.5t-95 0.5t-79 1q-3 3 -8 5t-8 5q-3 41 -3 121.5t-3 120.5q-1 19 0 59.5t0 59.5q-4 58 0 235q1 2 1 8t3 10q-3 4 -3 9t1.5 11t1.5 9q0 13 -2 37t-2 35 q-2 23 -2 63q-5 44 2 62q-1 26 0.5 131.5t-2.5 138.5q0 2 -2 4v6h2q2 100 2 297q10 7 10 15q98 8 270.5 5.5t272.5 0.5q32 1 90.5 -1.5t81.5 -2.5q4 0 14.5 1t18 0.5t14.5 -3.5q0 -2 0.5 -5.5t1.5 -10t2 -11.5q7 -35 8 -37q0 -12 0.5 -35t0.5 -35t-1.5 -30t-5.5 -35 q0 -31 -10 -61q-10 -3 -20.5 -3t-21.5 1.5t-17 1.5h-107q-18 0 -51 2t-49 2h-244q0 -21 2 -23v-4q0 -22 -4 -72l-2 -2q0 -19 -2.5 -61.5t-3 -65.5t3 -56t12.5 -58q26 0 80.5 2t98.5 2t77 -4q10 3 20.5 3.5t25.5 -0.5t22 -1q3 0 9 -1t9 -1t14.5 1t20 0.5t14.5 -3.5 q26 -124 4 -238q-14 -2 -43 -2q-101 4 -151 2q0 -4 -2 -2q-28 3 -60 3t-73 -1.5t-66 -1.5q-14 -234 -4 -344q43 0 192 -4.5t224 -1.5q14 0 26 6q7 -3 25 -2t25 -2q12 9 20 4zM662 1862q7 -10 5 -15.5t-9.5 -17.5t-8.5 -21q-10 -15 -52.5 -87.5t-72.5 -104.5q-4 -11 -18 -33 q-23 3 -50.5 3.5t-65 -0.5t-50.5 -1q-6 17 -10 23q16 26 35 78q6 9 13.5 33t16.5 32q3 12 8 22.5t15.5 25.5t13.5 20q6 26 21 41q20 1 60.5 4.5t66.5 3.5q48 0 69 -8q3 0 6.5 1t6.5 1z" />
<glyph unicode="&#xea;" horiz-adv-x="997" d="M897 252q23 -110 4 -176q4 -14 -2 -44t-6 -32q-12 -9 -19 4l-253 4q-40 1 -113.5 -5t-106.5 -7q-40 -3 -80 -3.5t-95 0.5t-79 1q-3 3 -8 5t-8 5q-3 41 -3 121.5t-3 120.5q-1 19 0 59.5t0 59.5q-4 58 0 235q1 2 1 8t3 10q-3 4 -3 9t1.5 11t1.5 9q0 13 -2 37t-2 35 q-2 23 -2 63q-5 44 2 62q-1 26 0.5 131.5t-2.5 138.5q0 2 -2 4v6h2q2 100 2 297q10 7 10 15q98 8 270.5 5.5t272.5 0.5q32 1 90.5 -1.5t81.5 -2.5q4 0 14.5 1t18 0.5t14.5 -3.5q0 -2 0.5 -5.5t1.5 -10t2 -11.5q7 -35 8 -37q0 -12 0.5 -35t0.5 -35t-1.5 -30t-5.5 -35 q0 -31 -10 -61q-10 -3 -20.5 -3t-21.5 1.5t-17 1.5h-107q-18 0 -51 2t-49 2h-244q0 -21 2 -23v-4q0 -22 -4 -72l-2 -2q0 -19 -2.5 -61.5t-3 -65.5t3 -56t12.5 -58q26 0 80.5 2t98.5 2t77 -4q10 3 20.5 3.5t25.5 -0.5t22 -1q3 0 9 -1t9 -1t14.5 1t20 0.5t14.5 -3.5 q26 -124 4 -238q-14 -2 -43 -2q-101 4 -151 2q0 -4 -2 -2q-28 3 -60 3t-73 -1.5t-66 -1.5q-14 -234 -4 -344q43 0 192 -4.5t224 -1.5q14 0 26 6q7 -3 25 -2t25 -2q12 9 20 4zM293 1696l6 8l12 14q8 9 21.5 30t21.5 30l6 4l7 14q3 6 11.5 14t10.5 11q1 1 1 4t1 4q5 15 19 29 q19 11 51 6q4 4 8 4.5t10.5 -1t9.5 -1.5q53 0 76 -6l6 -9q3 0 4.5 1.5t4.5 2.5q41 -55 139 -178l22 -35q2 -2 7.5 -9t8 -11.5t5.5 -11t1 -11.5t-9 -10q-2 2 0 4q-1 0 -3 -2t-3 -2q-6 -3 -12.5 -3t-13 1.5t-9.5 1.5q-22 3 -60.5 0.5t-60.5 1.5q-3 0 -5 -2t-5 -2l-13 15 q-13 16 -40 40t-40 39q-44 -26 -88 -84q-3 -4 -5 -0.5t-5 2.5q-3 0 -2 -3t-2 -3q-15 -5 -78.5 -0.5t-72.5 4.5q-4 23 2 29q6 0 6 4q1 1 1 4t1 6l24 27q3 3 7.5 10t8 11.5t7.5 7.5z" />
<glyph unicode="&#xeb;" horiz-adv-x="997" d="M897 252q23 -110 4 -176q4 -14 -2 -44t-6 -32q-12 -9 -19 4l-253 4q-40 1 -113.5 -5t-106.5 -7q-40 -3 -80 -3.5t-95 0.5t-79 1q-3 3 -8 5t-8 5q-3 41 -3 121.5t-3 120.5q-1 19 0 59.5t0 59.5q-4 58 0 235q1 2 1 8t3 10q-3 4 -3 9t1.5 11t1.5 9q0 13 -2 37t-2 35 q-2 23 -2 63q-5 44 2 62q-1 26 0.5 131.5t-2.5 138.5q0 2 -2 4v6h2q2 100 2 297q10 7 10 15q98 8 270.5 5.5t272.5 0.5q32 1 90.5 -1.5t81.5 -2.5q4 0 14.5 1t18 0.5t14.5 -3.5q0 -2 0.5 -5.5t1.5 -10t2 -11.5q7 -35 8 -37q0 -12 0.5 -35t0.5 -35t-1.5 -30t-5.5 -35 q0 -31 -10 -61q-10 -3 -20.5 -3t-21.5 1.5t-17 1.5h-107q-18 0 -51 2t-49 2h-244q0 -21 2 -23v-4q0 -22 -4 -72l-2 -2q0 -19 -2.5 -61.5t-3 -65.5t3 -56t12.5 -58q26 0 80.5 2t98.5 2t77 -4q10 3 20.5 3.5t25.5 -0.5t22 -1q3 0 9 -1t9 -1t14.5 1t20 0.5t14.5 -3.5 q26 -124 4 -238q-14 -2 -43 -2q-101 4 -151 2q0 -4 -2 -2q-28 3 -60 3t-73 -1.5t-66 -1.5q-14 -234 -4 -344q43 0 192 -4.5t224 -1.5q14 0 26 6q7 -3 25 -2t25 -2q12 9 20 4zM784 1593q-85 -7 -217 4q-20 81 -8 220q2 2 5 3.5t4 2.5t1 4q120 11 181 6q21 0 38 -10 q2 -18 3.5 -39t1.5 -35t-1 -41t-1.5 -35.5t-3.5 -41.5t-3 -38zM233 1595q-3 3 -9 4.5t-9 4.5q-11 93 4 213q12 6 27.5 9t27 3.5t32.5 1t30 0.5q55 4 96 -4q6 -15 8 -37.5t2 -34.5t-2 -43t-2 -33v-30t-4 -37q4 -11 0 -17q-6 -8 -41 -8q-103 -4 -160 8z" />
<glyph unicode="&#xec;" horiz-adv-x="524" d="M129 719q0 42 0.5 116.5t0.5 130t-1 99.5q0 45 0.5 119.5t0.5 131.5t-1 105q6 0 10 13q65 8 166 8q58 0 72 -8q3 -32 4 -70t1 -66t-0.5 -74t-0.5 -71q2 -72 2 -225q0 -9 -1.5 -26t-1.5 -30.5t3 -23.5q1 -3 3.5 -5t2.5 -5q1 -4 1 -10t-0.5 -13t-0.5 -10v-27q0 -12 1 -32.5 t1 -28.5q-4 -16 -4 -23v-67q0 -23 -4.5 -137.5t0.5 -143.5l8 -86q6 -131 0 -260q-6 -5 -14.5 -7.5t-15 -3t-18 -1t-17.5 -0.5q-67 -10 -129 -2q-6 0 -17 0.5t-17 1t-13.5 3t-12.5 7.5q-6 106 -2 364q1 47 0 106t-3 134t-3 117zM131 1655q-16 22 -43.5 65.5t-42.5 65.5 q-24 34 -37 67q2 1 6 3.5t5.5 3t5.5 -1.5q19 4 43.5 5.5t41 1.5t45 -0.5t38.5 -0.5q19 0 34 6h2q5 -9 13.5 -23.5t13.5 -23.5t11.5 -23t11.5 -28q19 -28 39 -86t30 -78q-1 -2 0.5 -6.5t2 -6.5t-2.5 -4q3 -1 -2 -2q-7 -1 -8 -2q-3 -1 -6.5 -1t-6.5 1t-3 2q-16 -3 -38.5 -3.5 t-54.5 0.5t-41 1q-3 0 -1 -2.5t-1 -3.5q-3 6 -10 8q0 4 -2.5 8t-7 8t-6.5 7q-7 12 -29 43z" />
<glyph unicode="&#xed;" horiz-adv-x="524" d="M129 719q0 42 0.5 116.5t0.5 130t-1 99.5q0 45 0.5 119.5t0.5 131.5t-1 105q6 0 10 13q65 8 166 8q58 0 72 -8q3 -32 4 -70t1 -66t-0.5 -74t-0.5 -71q2 -72 2 -225q0 -9 -1.5 -26t-1.5 -30.5t3 -23.5q1 -3 3.5 -5t2.5 -5q1 -4 1 -10t-0.5 -13t-0.5 -10v-27q0 -12 1 -32.5 t1 -28.5q-4 -16 -4 -23v-67q0 -23 -4.5 -137.5t0.5 -143.5l8 -86q6 -131 0 -260q-6 -5 -14.5 -7.5t-15 -3t-18 -1t-17.5 -0.5q-67 -10 -129 -2q-6 0 -17 0.5t-17 1t-13.5 3t-12.5 7.5q-6 106 -2 364q1 47 0 106t-3 134t-3 117zM500 1862q7 -10 5 -15.5t-9.5 -17.5t-8.5 -21 q-10 -15 -52.5 -87.5t-72.5 -104.5q-4 -11 -18 -33q-23 3 -50.5 3.5t-65 -0.5t-50.5 -1q-6 17 -10 23q16 26 35 78q6 9 13.5 33t16.5 32q3 12 8 22.5t15.5 25.5t13.5 20q6 26 21 41q20 1 60.5 4.5t66.5 3.5q48 0 69 -8q3 0 6.5 1t6.5 1z" />
<glyph unicode="&#xee;" horiz-adv-x="524" d="M129 719q0 42 0.5 116.5t0.5 130t-1 99.5q0 45 0.5 119.5t0.5 131.5t-1 105q6 0 10 13q65 8 166 8q58 0 72 -8q3 -32 4 -70t1 -66t-0.5 -74t-0.5 -71q2 -72 2 -225q0 -9 -1.5 -26t-1.5 -30.5t3 -23.5q1 -3 3.5 -5t2.5 -5q1 -4 1 -10t-0.5 -13t-0.5 -10v-27q0 -12 1 -32.5 t1 -28.5q-4 -16 -4 -23v-67q0 -23 -4.5 -137.5t0.5 -143.5l8 -86q6 -131 0 -260q-6 -5 -14.5 -7.5t-15 -3t-18 -1t-17.5 -0.5q-67 -10 -129 -2q-6 0 -17 0.5t-17 1t-13.5 3t-12.5 7.5q-6 106 -2 364q1 47 0 106t-3 134t-3 117zM53 1696l6 8l13 14q8 9 21.5 30t21.5 30l6 4 l6 14q3 6 12 14t11 11q1 1 1 4t1 4q6 17 18 29q19 11 51 6q4 4 8.5 4.5t11 -1t9.5 -1.5q53 0 76 -6l6 -9q3 0 4 1.5t4 2.5q41 -55 139 -178l23 -35q1 -2 7 -9t8.5 -11.5t5 -11t0.5 -11.5t-9 -10q-2 2 0 4q-1 0 -3 -2t-3 -2q-6 -3 -12.5 -3t-13 1.5t-9.5 1.5q-22 3 -60.5 0.5 t-60.5 1.5q-3 0 -5 -2t-5 -2l-12 15q-12 16 -39.5 40t-40.5 39q-44 -26 -88 -84q-3 -4 -5 -0.5t-5 2.5q-3 0 -2.5 -3t-2.5 -3q-15 -5 -78.5 -0.5t-72.5 4.5q-4 23 2 29q6 0 6 4q1 1 1 4t1 6l25 27q2 3 9.5 14t12.5 15z" />
<glyph unicode="&#xef;" horiz-adv-x="524" d="M129 719q0 42 0.5 116.5t0.5 130t-1 99.5q0 45 0.5 119.5t0.5 131.5t-1 105q6 0 10 13q65 8 166 8q58 0 72 -8q3 -32 4 -70t1 -66t-0.5 -74t-0.5 -71q2 -72 2 -225q0 -9 -1.5 -26t-1.5 -30.5t3 -23.5q1 -3 3.5 -5t2.5 -5q1 -4 1 -10t-0.5 -13t-0.5 -10v-27q0 -12 1 -32.5 t1 -28.5q-4 -16 -4 -23v-67q0 -23 -4.5 -137.5t0.5 -143.5l8 -86q6 -131 0 -260q-6 -5 -14.5 -7.5t-15 -3t-18 -1t-17.5 -0.5q-67 -10 -129 -2q-6 0 -17 0.5t-17 1t-13.5 3t-12.5 7.5q-6 106 -2 364q1 47 0 106t-3 134t-3 117zM545 1593q-84 -7 -217 4q-21 84 -9 220 q2 2 5 3.5t4.5 2.5t1.5 4q119 11 180 6q22 0 39 -10q2 -18 3.5 -39t1.5 -35t-1 -41t-1.5 -35.5t-3.5 -41.5t-3 -38zM-6 1595q-3 3 -9.5 4.5t-9.5 4.5q-11 89 5 213q12 6 27.5 9t26.5 3.5t32 1t30 0.5q55 4 97 -4q6 -15 8 -37.5t2 -34.5t-2 -43t-2 -33q-1 -6 -1 -30t-3 -37 q4 -11 0 -17q-6 -8 -41 -8q-103 -4 -160 8z" />
<glyph unicode="&#xf0;" horiz-adv-x="1026" d="M911 639q1 -15 1 -47.5t1 -48.5v-99l-8 -51q0 -6 1.5 -26.5t0.5 -28.5q0 -3 -2.5 -6t-3.5 -6q-3 -8 -3 -25.5t-1 -21.5q-4 -8 -5.5 -22.5t-4.5 -20.5q-4 -12 -16.5 -32t-16.5 -30q-18 -33 -37 -57q-9 -10 -51 -43q-5 -4 -16 -14t-20 -15.5t-19 -9.5q-73 -39 -146 -39 q-54 -4 -82 -4h-75q-100 -5 -125 -4q-11 0 -33 1t-33 1q-45 0 -61 6q-2 2 -15 6q-8 96 -8 221q0 74 2 123q0 94 2 133q4 111 0 148q-76 6 -102 0q-6 18 -1.5 87.5t1.5 98.5q2 2 4.5 3.5t4 3t3 4t2.5 5.5q36 9 92 5q-3 62 -3 169t-1 130q0 28 1.5 89t1.5 111.5t-3 89.5 q3 3 10.5 6.5t10.5 6.5q20 4 106.5 2.5t112.5 -0.5h104l111 -4l59 -17l29 -8q31 -8 55 -23l25 -18q48 -28 67 -61q8 -9 33 -54q2 -5 13 -26t14 -31q10 -29 14 -88q4 -51 4.5 -147t3.5 -136q3 -32 1 -93t1 -93zM651 360q0 4 4.5 6t3.5 5q-3 51 -3 105.5t1.5 118.5t1.5 99 q0 4 -6 244q0 11 1 31.5t1 34.5q0 8 1.5 24t1.5 29t-3 24q0 1 -6 25q-8 37 -31 63q-22 19 -63.5 25.5t-80.5 4t-79 1.5q-6 0 -2 -4q-9 -182 4 -371q21 4 68.5 1.5t71.5 -1.5q3 -4 5 -11.5t5 -10.5q0 -17 1 -53.5t0.5 -60t-5.5 -50.5q-25 -7 -70 -5.5t-76 -2.5q6 -12 2 -96.5 t-4 -94.5q0 -5 -1.5 -16t-1.5 -20.5t3 -16.5q0 -3 1 -8t1 -8q1 -3 -0.5 -8t-1.5 -7q-3 -43 4 -82q-4 -3 -4.5 -8.5t1 -15.5t1.5 -14q65 -10 131 0l45 6q46 15 74 51q5 57 4 67z" />
<glyph unicode="&#xf1;" horiz-adv-x="1095" d="M971 223q1 -27 -1.5 -105t1.5 -102q0 -2 -3.5 -6t-2.5 -8q-12 0 -89.5 -3t-87.5 1q-4 0 -33 3t-44 3q-9 29 -25 55q-13 38 -42 105t-42 102q-3 7 -13.5 29.5t-16 38t-9.5 33.5l-41 104q-14 37 -32 78.5t-42.5 92.5t-37.5 81q-1 1 -9.5 19.5t-9.5 29.5q-3 1 -10 21 q-1 -71 4 -422q0 -49 2 -74q0 -14 2 -39t2 -37q0 -9 -2 -27t-2 -26q-6 -51 -6 -156q-3 -1 -6.5 -0.5t-5 -0.5t-2.5 -5q-78 -27 -234 0q-5 11 -5.5 30.5t5.5 27.5q-4 9 -4 49q4 54 2 82q-1 7 -3.5 33.5t-2.5 39.5q-1 13 4 88q1 25 -1 73.5t-1 76.5v158q0 9 1.5 33.5t0.5 37.5 q-1 36 1.5 106.5t2.5 100.5q0 32 -1.5 113.5t-2 126.5t0 115t3.5 131q134 20 223 8q1 -3 2.5 -3.5t3.5 0t5 -0.5q7 -10 12.5 -21t11 -25t8.5 -22.5t9 -26.5l8 -24q22 -33 49 -104t37 -91q30 -67 71 -164q70 -187 144 -327l8 129q2 44 -2 135v274v56q0 7 -0.5 109t0.5 104 q145 24 244 -6q2 -47 2 -138q0 -24 1 -70t1 -69q-1 -16 -2.5 -44.5t-2.5 -52t-1 -44.5q3 -79 -1 -235.5t-1 -225.5v-111q5 -181 8 -217zM705 1821q51 10 116 6q3 -3 7 -12t6 -13q-3 -17 -3 -47t-3.5 -53.5t-14.5 -40.5q-7 -17 -41 -41q-22 -15 -43 -21q-20 -7 -29 -8 q-51 -9 -104 8q-8 4 -26 18t-27 19q-26 20 -56 26t-59 -9q-13 -8 -25 -33.5t-16 -30.5q-11 0 -35 -2t-44.5 -2t-37.5 4q-1 5 -3.5 15t-2.5 18q0 5 1 14.5t1 14.5q0 46 6 69q8 24 31 47q48 59 115 66q17 1 76 -10q10 -2 18.5 -4.5t17 -6t13 -5.5t13.5 -7.5t12 -7.5t14 -9 t14 -9q2 -1 12 -5.5t14 -6.5t14 -5.5t14 -2.5t12 1q28 9 43 66z" />
<glyph unicode="&#xf2;" d="M860 627l3.5 -7t2.5 -8t-1 -7t-1 -7q0 -18 0.5 -68.5t0 -77t-2 -67t-6 -72.5t-12.5 -59q5 -27 -19 -82q-8 -13 -21 -30.5t-18 -24.5q-6 -8 -13.5 -15.5t-10.5 -10t-16 -11.5t-15 -10l-18 -17q-31 -18 -41 -22q-46 -25 -97 -37q-10 -2 -35 -8.5t-42 -9t-35 -1.5 q-6 1 -22 5t-25 4q-49 4 -54 6l-45 20q-19 13 -38 23l-37 24q-10 8 -31 28.5t-33 29.5l-26 37q-29 47 -39 79q-15 58 -17 99q0 15 -5.5 58.5t-2.5 70.5q0 24 2 26q0 9 1 38t1 38q0 4 -1 11t-1 10q-1 50 0.5 145.5t1.5 126.5v137q0 44 4 170v26t4 34q0 3 4 9.5t5 8.5 q10 37 26 53q4 6 9 11.5t12 11t10 8.5q2 2 12 13t13 14l12 12t14.5 13t14 10t16.5 10q12 6 50.5 21t57.5 28q8 1 31.5 5t34.5 5.5t32.5 4t36 3t34 -1t36.5 -4.5q13 -3 37 -15.5t37 -15.5l14 -4q23 -8 57.5 -30.5t45.5 -28.5q11 -12 20.5 -25.5t18 -30t13.5 -27t14 -31.5 t13 -29q23 -51 23 -177l4 -213q1 -14 1 -29.5t-0.5 -35t-0.5 -29.5q1 -13 -0.5 -55.5t2.5 -52.5zM610 412q4 22 4 92q-2 41 -2 100q-4 45 2 66q-6 18 -8.5 38.5t-3 57.5t-0.5 45q-1 13 0.5 64.5t-2.5 64.5q-1 15 0 54t0 59v55q-8 36 -35 63l-14 7q-2 2 -4.5 5.5t-5.5 4.5 q-1 1 -5.5 1t-5.5 1l-6 6q-13 8 -39 8q-74 -5 -104 -30q-14 -10 -31 -39q-4 -9 -5.5 -18t-1.5 -15t0.5 -19t0.5 -20q0 -48 -4 -227.5t0 -225.5q1 -16 3.5 -58.5t2.5 -60t-2 -59.5q-4 -112 33 -158q1 -3 1 -6t1 -4l27 -22q56 -13 102 -2t72 43q1 3 5 5t5 5q1 1 1 5t1 5 q1 3 3.5 5t2.5 3l4 17q1 2 2.5 5.5t2.5 5.5t1 3q4 9 2.5 35.5t-0.5 34.5zM342 1655q-16 22 -43 65.5t-43 65.5q-24 34 -37 67q2 1 6 3.5t5.5 3t5.5 -1.5q19 4 43 5.5t40.5 1.5t45 -0.5t38.5 -0.5q20 0 35 6h2q40 -74 49 -98q19 -28 39.5 -86t30.5 -78q-1 -2 0.5 -6.5t2 -6.5 t-2.5 -4q3 -1 -2 -2q-7 -1 -8 -2q-3 -1 -7 -1t-7 1t-3 2q-16 -3 -38.5 -3.5t-54 0.5t-40.5 1q-3 0 -1 -2.5t-1 -3.5q-3 6 -10 8q0 4 -2.5 8t-7 8t-6.5 7q-7 12 -29 43z" />
<glyph unicode="&#xf3;" d="M860 627l3.5 -7t2.5 -8t-1 -7t-1 -7q0 -18 0.5 -68.5t0 -77t-2 -67t-6 -72.5t-12.5 -59q5 -27 -19 -82q-8 -13 -21 -30.5t-18 -24.5q-6 -8 -13.5 -15.5t-10.5 -10t-16 -11.5t-15 -10l-18 -17q-31 -18 -41 -22q-46 -25 -97 -37q-10 -2 -35 -8.5t-42 -9t-35 -1.5 q-6 1 -22 5t-25 4q-49 4 -54 6l-45 20q-19 13 -38 23l-37 24q-10 8 -31 28.5t-33 29.5l-26 37q-29 47 -39 79q-15 58 -17 99q0 15 -5.5 58.5t-2.5 70.5q0 24 2 26q0 9 1 38t1 38q0 4 -1 11t-1 10q-1 50 0.5 145.5t1.5 126.5v137q0 44 4 170v26t4 34q0 3 4 9.5t5 8.5 q10 37 26 53q4 6 9 11.5t12 11t10 8.5q2 2 12 13t13 14l12 12t14.5 13t14 10t16.5 10q12 6 50.5 21t57.5 28q8 1 31.5 5t34.5 5.5t32.5 4t36 3t34 -1t36.5 -4.5q13 -3 37 -15.5t37 -15.5l14 -4q23 -8 57.5 -30.5t45.5 -28.5q11 -12 20.5 -25.5t18 -30t13.5 -27t14 -31.5 t13 -29q23 -51 23 -177l4 -213q1 -14 1 -29.5t-0.5 -35t-0.5 -29.5q1 -13 -0.5 -55.5t2.5 -52.5zM610 412q4 22 4 92q-2 41 -2 100q-4 45 2 66q-6 18 -8.5 38.5t-3 57.5t-0.5 45q-1 13 0.5 64.5t-2.5 64.5q-1 15 0 54t0 59v55q-8 36 -35 63l-14 7q-2 2 -4.5 5.5t-5.5 4.5 q-1 1 -5.5 1t-5.5 1l-6 6q-13 8 -39 8q-74 -5 -104 -30q-14 -10 -31 -39q-4 -9 -5.5 -18t-1.5 -15t0.5 -19t0.5 -20q0 -48 -4 -227.5t0 -225.5q1 -16 3.5 -58.5t2.5 -60t-2 -59.5q-4 -112 33 -158q1 -3 1 -6t1 -4l27 -22q56 -13 102 -2t72 43q1 3 5 5t5 5q1 1 1 5t1 5 q1 3 3.5 5t2.5 3l4 17q1 2 2.5 5.5t2.5 5.5t1 3q4 9 2.5 35.5t-0.5 34.5zM719 1862q7 -10 5 -15.5t-9 -17.5t-8 -21q-10 -15 -52.5 -87.5t-72.5 -104.5q-2 -5 -19 -33q-23 3 -50.5 3.5t-65 -0.5t-50.5 -1q-6 17 -10 23q16 26 35 78q6 9 14 33t17 32q2 9 6.5 19t8.5 16 t10.5 16.5t10.5 16.5q6 26 21 41q20 1 60.5 4.5t66.5 3.5q49 0 70 -8q3 0 6 1t6 1z" />
<glyph unicode="&#xf4;" d="M860 627l3.5 -7t2.5 -8t-1 -7t-1 -7q0 -18 0.5 -68.5t0 -77t-2 -67t-6 -72.5t-12.5 -59q5 -27 -19 -82q-8 -13 -21 -30.5t-18 -24.5q-6 -8 -13.5 -15.5t-10.5 -10t-16 -11.5t-15 -10l-18 -17q-31 -18 -41 -22q-46 -25 -97 -37q-10 -2 -35 -8.5t-42 -9t-35 -1.5 q-6 1 -22 5t-25 4q-49 4 -54 6l-45 20q-19 13 -38 23l-37 24q-10 8 -31 28.5t-33 29.5l-26 37q-29 47 -39 79q-15 58 -17 99q0 15 -5.5 58.5t-2.5 70.5q0 24 2 26q0 9 1 38t1 38q0 4 -1 11t-1 10q-1 50 0.5 145.5t1.5 126.5v137q0 44 4 170v26t4 34q0 3 4 9.5t5 8.5 q10 37 26 53q4 6 9 11.5t12 11t10 8.5q2 2 12 13t13 14l12 12t14.5 13t14 10t16.5 10q12 6 50.5 21t57.5 28q8 1 31.5 5t34.5 5.5t32.5 4t36 3t34 -1t36.5 -4.5q13 -3 37 -15.5t37 -15.5l14 -4q23 -8 57.5 -30.5t45.5 -28.5q11 -12 20.5 -25.5t18 -30t13.5 -27t14 -31.5 t13 -29q23 -51 23 -177l4 -213q1 -14 1 -29.5t-0.5 -35t-0.5 -29.5q1 -13 -0.5 -55.5t2.5 -52.5zM610 412q4 22 4 92q-2 41 -2 100q-4 45 2 66q-6 18 -8.5 38.5t-3 57.5t-0.5 45q-1 13 0.5 64.5t-2.5 64.5q-1 15 0 54t0 59v55q-8 36 -35 63l-14 7q-2 2 -4.5 5.5t-5.5 4.5 q-1 1 -5.5 1t-5.5 1l-6 6q-13 8 -39 8q-74 -5 -104 -30q-14 -10 -31 -39q-4 -9 -5.5 -18t-1.5 -15t0.5 -19t0.5 -20q0 -48 -4 -227.5t0 -225.5q1 -16 3.5 -58.5t2.5 -60t-2 -59.5q-4 -112 33 -158q1 -3 1 -6t1 -4l27 -22q56 -13 102 -2t72 43q1 3 5 5t5 5q1 1 1 5t1 5 q1 3 3.5 5t2.5 3l4 17q1 2 2.5 5.5t2.5 5.5t1 3q4 9 2.5 35.5t-0.5 34.5zM268 1696l6 8l13 14q8 9 21.5 30t21.5 30l6 4l6 14q3 6 12 14t11 11q1 1 1 4t1 4q5 17 18 29q19 11 51 6q4 4 8.5 4.5t11 -1t9.5 -1.5q53 0 76 -6l6 -9q3 0 4 1.5t4 2.5q41 -55 139 -178l23 -35 q1 -2 7 -9t8.5 -11.5t5 -11t0.5 -11.5t-9 -10q-2 2 0 4q-1 0 -3 -2t-3 -2q-6 -3 -12.5 -3t-13 1.5t-9.5 1.5q-22 3 -60.5 0.5t-60.5 1.5q-3 0 -5 -2t-5 -2l-12 15q-12 16 -40 40t-40 39q-44 -26 -88 -84q-3 -4 -5 -0.5t-5 2.5q-3 0 -2.5 -3t-2.5 -3q-15 -5 -78.5 -0.5 t-72.5 4.5q-5 23 2 29q6 0 6 4q1 1 1 4t1 6l25 27q2 3 9.5 14t12.5 15z" />
<glyph unicode="&#xf5;" d="M860 627l3.5 -7t2.5 -8t-1 -7t-1 -7q0 -18 0.5 -68.5t0 -77t-2 -67t-6 -72.5t-12.5 -59q5 -27 -19 -82q-8 -13 -21 -30.5t-18 -24.5q-6 -8 -13.5 -15.5t-10.5 -10t-16 -11.5t-15 -10l-18 -17q-31 -18 -41 -22q-46 -25 -97 -37q-10 -2 -35 -8.5t-42 -9t-35 -1.5 q-6 1 -22 5t-25 4q-49 4 -54 6l-45 20q-19 13 -38 23l-37 24q-10 8 -31 28.5t-33 29.5l-26 37q-29 47 -39 79q-15 58 -17 99q0 15 -5.5 58.5t-2.5 70.5q0 24 2 26q0 9 1 38t1 38q0 4 -1 11t-1 10q-1 50 0.5 145.5t1.5 126.5v137q0 44 4 170v26t4 34q0 3 4 9.5t5 8.5 q10 37 26 53q4 6 9 11.5t12 11t10 8.5q2 2 12 13t13 14l12 12t14.5 13t14 10t16.5 10q12 6 50.5 21t57.5 28q8 1 31.5 5t34.5 5.5t32.5 4t36 3t34 -1t36.5 -4.5q13 -3 37 -15.5t37 -15.5l14 -4q23 -8 57.5 -30.5t45.5 -28.5q11 -12 20.5 -25.5t18 -30t13.5 -27t14 -31.5 t13 -29q23 -51 23 -177l4 -213q1 -14 1 -29.5t-0.5 -35t-0.5 -29.5q1 -13 -0.5 -55.5t2.5 -52.5zM610 412q4 22 4 92q-2 41 -2 100q-4 45 2 66q-6 18 -8.5 38.5t-3 57.5t-0.5 45q-1 13 0.5 64.5t-2.5 64.5q-1 15 0 54t0 59v55q-8 36 -35 63l-14 7q-2 2 -4.5 5.5t-5.5 4.5 q-1 1 -5.5 1t-5.5 1l-6 6q-13 8 -39 8q-74 -5 -104 -30q-14 -10 -31 -39q-4 -9 -5.5 -18t-1.5 -15t0.5 -19t0.5 -20q0 -48 -4 -227.5t0 -225.5q1 -16 3.5 -58.5t2.5 -60t-2 -59.5q-4 -112 33 -158q1 -3 1 -6t1 -4l27 -22q56 -13 102 -2t72 43q1 3 5 5t5 5q1 1 1 5t1 5 q1 3 3.5 5t2.5 3l4 17q1 2 2.5 5.5t2.5 5.5t1 3q4 9 2.5 35.5t-0.5 34.5zM631 1821q52 10 117 6q3 -3 6 -12t6 -13q-3 -17 -3 -47t-3.5 -53.5t-14.5 -40.5q-7 -17 -41 -41q-22 -15 -43 -21q-21 -7 -28 -8q-51 -9 -105 8q-8 4 -26 18t-27 19q-26 20 -56 26t-59 -9 q-13 -8 -25 -33.5t-16 -30.5q-11 0 -34.5 -2t-44 -2t-37.5 4q-1 6 -4 15.5t-3 17.5q0 5 1.5 14.5t1.5 14.5q0 46 6 69q9 26 30 47q48 59 115 66q17 1 76 -10q10 -2 18.5 -4.5t17 -6t13 -5.5t13.5 -7.5t12 -7.5t14 -9t14 -9q2 -1 12 -5.5t14 -6.5t14 -5.5t14 -2.5t12 1 q28 9 43 66z" />
<glyph unicode="&#xf6;" d="M860 627l3.5 -7t2.5 -8t-1 -7t-1 -7q0 -18 0.5 -68.5t0 -77t-2 -67t-6 -72.5t-12.5 -59q5 -27 -19 -82q-8 -13 -21 -30.5t-18 -24.5q-6 -8 -13.5 -15.5t-10.5 -10t-16 -11.5t-15 -10l-18 -17q-31 -18 -41 -22q-46 -25 -97 -37q-10 -2 -35 -8.5t-42 -9t-35 -1.5 q-6 1 -22 5t-25 4q-49 4 -54 6l-45 20q-19 13 -38 23l-37 24q-10 8 -31 28.5t-33 29.5l-26 37q-29 47 -39 79q-15 58 -17 99q0 15 -5.5 58.5t-2.5 70.5q0 24 2 26q0 9 1 38t1 38q0 4 -1 11t-1 10q-1 50 0.5 145.5t1.5 126.5v137q0 44 4 170v26t4 34q0 3 4 9.5t5 8.5 q10 37 26 53q4 6 9 11.5t12 11t10 8.5q2 2 12 13t13 14l12 12t14.5 13t14 10t16.5 10q12 6 50.5 21t57.5 28q8 1 31.5 5t34.5 5.5t32.5 4t36 3t34 -1t36.5 -4.5q13 -3 37 -15.5t37 -15.5l14 -4q23 -8 57.5 -30.5t45.5 -28.5q11 -12 20.5 -25.5t18 -30t13.5 -27t14 -31.5 t13 -29q23 -51 23 -177l4 -213q1 -14 1 -29.5t-0.5 -35t-0.5 -29.5q1 -13 -0.5 -55.5t2.5 -52.5zM610 412q4 22 4 92q-2 41 -2 100q-4 45 2 66q-6 18 -8.5 38.5t-3 57.5t-0.5 45q-1 13 0.5 64.5t-2.5 64.5q-1 15 0 54t0 59v55q-8 36 -35 63l-14 7q-2 2 -4.5 5.5t-5.5 4.5 q-1 1 -5.5 1t-5.5 1l-6 6q-13 8 -39 8q-74 -5 -104 -30q-14 -10 -31 -39q-4 -9 -5.5 -18t-1.5 -15t0.5 -19t0.5 -20q0 -48 -4 -227.5t0 -225.5q1 -16 3.5 -58.5t2.5 -60t-2 -59.5q-4 -112 33 -158q1 -3 1 -6t1 -4l27 -22q56 -13 102 -2t72 43q1 3 5 5t5 5q1 1 1 5t1 5 q1 3 3.5 5t2.5 3l4 17q1 2 2.5 5.5t2.5 5.5t1 3q4 9 2.5 35.5t-0.5 34.5zM760 1593q-85 -7 -217 4q-20 81 -8 220q2 2 5 3.5t4 2.5t1 4q119 11 180 6q22 0 39 -10q2 -18 3.5 -39t1.5 -35t-1 -41t-1.5 -35.5t-3.5 -41.5t-3 -38zM209 1595q-3 3 -9.5 4.5t-9.5 4.5 q-11 89 5 213q12 6 27.5 9t26.5 3.5t32 1t30 0.5q55 4 97 -4q6 -15 8 -37.5t2 -34.5t-2 -43t-2 -33v-30t-4 -37q4 -11 0 -17q-6 -8 -41 -8q-103 -4 -160 8z" />
<glyph unicode="&#xf7;" horiz-adv-x="1079" d="M416 930q-3 20 0 57.5t0 52.5q3 7 4 20.5t4 20.5q113 32 203 13q3 3 5 3.5t5 -0.5t6 -1q6 -17 9 -39.5t4 -38.5t0 -46.5t-2 -40.5t-4 -44.5t-3 -36.5q-12 -1 -45.5 -4t-48.5 -3.5t-41 -1.5t-46.5 1t-41.5 6q-3 13 -8 82zM938 725q25 -43 14 -133q-2 -9 -3.5 -24.5t-4 -27 t-8.5 -18.5q-104 -5 -422 0q-108 3 -244 0h-129q-16 53 -16 99q-1 19 4.5 53t5.5 49l12 2l9 1.5t4 0.5q70 -3 198.5 -1t192.5 -1q187 -9 387 0zM645 399q12 -62 14 -98q4 -91 -4 -125q-1 -3 -5 -6t-5 -6q-9 2 -35 -2q-34 0 -100 4q-58 4 -84 14q-1 11 -4.5 41.5t-3.5 48.5 q-1 22 3.5 63t4.5 54l6 6q97 19 213 6z" />
<glyph unicode="&#xf8;" horiz-adv-x="1144" d="M86 326q-3 1 -6 4.5t-6 3.5q0 23 -4 73t-5 80t3 70q18 7 37.5 18t43 25.5t37.5 22.5q-12 50 -4 94q9 138 6 280q-4 57 5 93q1 14 0 37t0 34q3 34 18 64q7 13 20.5 41.5t20.5 42.5q16 27 37 45t55 37q66 40 166 49q8 1 23 2.5t27.5 2.5t23.5 1q67 3 153 -25q30 -10 47 -24 q15 -3 41 -23q9 -7 47 -45q19 -19 41 -61l17 -51q16 -39 24 -74q4 -12 2.5 -51t-0.5 -50q8 0 16 3.5t18.5 10.5l13.5 9q18 11 47 22q3 0 6.5 -2t7.5 -2q2 -13 6 -38.5t5.5 -43t0.5 -38.5q-4 -69 -12 -103q-11 -6 -41 -21.5t-45 -25.5l-4 -4q-2 -2 -2 -4v-2q-3 -3 -8.5 -3 t-6.5 -3q-3 -25 -3.5 -51.5t0.5 -65.5t1 -57v-52q0 -8 -1 -23.5t-1 -23.5q1 -11 5 -52.5t4 -51t2 -52.5t-2 -57l-7 -39q-3 -38 -16 -47v-22q-4 -7 -12.5 -22t-15 -25.5t-13.5 -18.5q-4 -6 -10 -12t-14 -13t-13 -12t-19 -18.5t-21 -19.5t-19.5 -14.5t-24.5 -14.5 q-37 -21 -94.5 -34t-112.5 -13q-22 0 -46 3.5t-40 8t-42.5 12t-39.5 10.5q-39 13 -43 15q-3 2 -6.5 3.5t-5.5 2.5t-4 2.5t-3.5 3t-3.5 4.5t-3 6q-70 40 -104 121.5t-46 202.5q-88 -48 -98 -55zM453 1090q0 -8 -3.5 -32t-3 -33t4.5 -32q-7 -27 -7 -73q0 -23 2.5 -78.5 t2.5 -81.5q41 24 123.5 67.5t123.5 67.5q-1 22 6.5 75t4.5 81q-13 87 -33 112q-30 34 -70 37q-59 6 -100 -17.5t-55 -68.5q2 -2 2 -12q0 -6 -2 -8q4 0 4 -4zM702 340v45q-3 49 -1 149t-1 132q-146 -87 -254 -140q0 -97 3 -161q0 -60 14 -78q4 -7 17 -16.5t18 -16.5 q32 -16 53 -18q29 -6 68.5 -1t58.5 21q4 3 7.5 7.5t5.5 8t4 10t3 10t1.5 11.5t1 11.5t1 13t0.5 12.5z" />
<glyph unicode="&#xf9;" d="M631 8l-37 -6q-98 -22 -191 -10q-26 2 -73 14q-12 5 -49 23q-7 5 -25 13t-25 13t-20.5 20t-26.5 23q-8 11 -26.5 34t-30 41.5t-18.5 39.5q-2 8 -6.5 22.5t-7 26.5t-3.5 23q-8 63 -8 151q0 1 6 70q0 11 -3 33.5t-3 40t6 28.5q-4 1 -5 5.5t0 16t1 13.5q0 33 -1.5 90.5 t-1.5 108.5t3 106q3 47 3 101t-1.5 120t-1.5 101q4 114 0 149q1 2 4.5 6t3.5 9l94 16q28 3 80.5 -4t67.5 -8q10 -10 7 -43.5t1 -44.5q-4 -3 -2.5 -11.5t-1.5 -11.5q4 -20 4 -62.5v-52.5q0 -14 0.5 -39t0.5 -46t-1 -40q0 -34 1 -114.5t1 -126.5l-6 -252q-1 -38 4 -182 q0 -9 -0.5 -27.5t-0.5 -28t2 -23.5t7 -26q20 -51 78 -63q47 -7 55 -6q1 0 19 6q3 1 9 1t9 1q22 5 44 19t28 30q3 4 4 9t1 12t1 10q9 31 0 49q5 37 0 166q-2 51 -2 164l1 3q1 2 1.5 4t-0.5 3.5t-4 1.5q0 3 3 2q1 0 1 1v3q0 32 1 69.5t2.5 83.5t2.5 72v139q0 27 -1 79.5 t-1 82.5q0 5 2 15.5t2 15.5t-1 14.5t-1 14.5l4 123q20 9 54 12q46 5 53 4q57 17 141 -12q1 -2 1 -6t1 -6t4 -3q3 -58 -3 -159.5t-3 -155.5q2 -39 2 -115q0 -41 -1 -115t-1 -112q0 -19 1.5 -62t1 -77t-4.5 -66q5 -16 1 -81t-3 -85q5 -68 4 -84q-1 -2 -2 -7t-3 -11t-5 -12 q-3 -10 -8 -39.5t-9 -44.5q-1 -2 -3.5 -6t-2.5 -7q-1 -1 -1 -5t-1 -7l-12 -16q-24 -40 -45 -56q-32 -32 -39 -37q-3 -3 -12 -6t-13 -6q-3 -3 -10 -7.5t-10 -6.5l-25 -10zM342 1655q-16 22 -43 65.5t-43 65.5q-24 34 -37 67q2 1 6 3.5t5.5 3t5.5 -1.5q19 4 43 5.5t40.5 1.5 t45 -0.5t38.5 -0.5q20 0 35 6h2q40 -74 49 -98q19 -28 39.5 -86t30.5 -78q-1 -2 0.5 -6.5t2 -6.5t-2.5 -4q3 -1 -2 -2q-7 -1 -8 -2q-3 -1 -7 -1t-7 1t-3 2q-16 -3 -38.5 -3.5t-54 0.5t-40.5 1q-3 0 -1 -2.5t-1 -3.5q-3 6 -10 8q0 4 -2.5 8t-7 8t-6.5 7q-7 12 -29 43z M100 1421q0 3 -2 3.5t-4 0t-2 -1.5q2 -2 8 -2z" />
<glyph unicode="&#xfa;" d="M631 8l-37 -6q-98 -22 -191 -10q-26 2 -73 14q-12 5 -49 23q-7 5 -25 13t-25 13t-20.5 20t-26.5 23q-8 11 -26.5 34t-30 41.5t-18.5 39.5q-2 8 -6.5 22.5t-7 26.5t-3.5 23q-8 63 -8 151q0 1 6 70q0 11 -3 33.5t-3 40t6 28.5q-4 1 -5 5.5t0 16t1 13.5q0 33 -1.5 90.5 t-1.5 108.5t3 106q3 47 3 101t-1.5 120t-1.5 101q4 114 0 149q1 2 4.5 6t3.5 9l94 16q28 3 80.5 -4t67.5 -8q10 -10 7 -43.5t1 -44.5q-4 -3 -2.5 -11.5t-1.5 -11.5q4 -20 4 -62.5v-52.5q0 -14 0.5 -39t0.5 -46t-1 -40q0 -34 1 -114.5t1 -126.5l-6 -252q-1 -38 4 -182 q0 -9 -0.5 -27.5t-0.5 -28t2 -23.5t7 -26q20 -51 78 -63q47 -7 55 -6q1 0 19 6q3 1 9 1t9 1q22 5 44 19t28 30q3 4 4 9t1 12t1 10q9 31 0 49q5 37 0 166q-2 51 -2 164l1 3q1 2 1.5 4t-0.5 3.5t-4 1.5q0 3 3 2q1 0 1 1v3q0 32 1 69.5t2.5 83.5t2.5 72v139q0 27 -1 79.5 t-1 82.5q0 5 2 15.5t2 15.5t-1 14.5t-1 14.5l4 123q20 9 54 12q46 5 53 4q57 17 141 -12q1 -2 1 -6t1 -6t4 -3q3 -58 -3 -159.5t-3 -155.5q2 -39 2 -115q0 -41 -1 -115t-1 -112q0 -19 1.5 -62t1 -77t-4.5 -66q5 -16 1 -81t-3 -85q5 -68 4 -84q-1 -2 -2 -7t-3 -11t-5 -12 q-3 -10 -8 -39.5t-9 -44.5q-1 -2 -3.5 -6t-2.5 -7q-1 -1 -1 -5t-1 -7l-12 -16q-24 -40 -45 -56q-32 -32 -39 -37q-3 -3 -12 -6t-13 -6q-3 -3 -10 -7.5t-10 -6.5l-25 -10zM719 1862q7 -10 5 -15.5t-9 -17.5t-8 -21q-10 -15 -52.5 -87.5t-72.5 -104.5q-2 -5 -19 -33 q-23 3 -50.5 3.5t-65 -0.5t-50.5 -1q-6 17 -10 23q16 26 35 78q6 9 14 33t17 32q2 9 6.5 19t8.5 16t10.5 16.5t10.5 16.5q6 26 21 41q20 1 60.5 4.5t66.5 3.5q49 0 70 -8q3 0 6 1t6 1zM100 1421q0 3 -2 3.5t-4 0t-2 -1.5q2 -2 8 -2z" />
</font>
</defs>
</svg>
