<?xml version="1.0" standalone="no"?>
<!DOCTYPE svg PUBLIC "-//W3C//DTD SVG 1.1//EN" "http://www.w3.org/Graphics/SVG/1.1/DTD/svg11.dtd" >
<svg xmlns="http://www.w3.org/2000/svg">
<metadata>Generated by IcoMoon</metadata>
<defs>
<font id="icomoon" horiz-adv-x="512">
<font-face units-per-em="512" ascent="480" descent="-32" />
<missing-glyph horiz-adv-x="512" />
<glyph unicode="&#x20;" d="" horiz-adv-x="256" />
<glyph unicode="&#x41;" d="M256.009 343.151c-65.834 0-119.159-53.342-119.159-119.151s53.325-119.151 119.159-119.151c65.809 0 119.142 53.342 119.142 119.151s-53.342 119.151-119.142 119.151zM256.009 114.381c-60.45 0-109.627 49.178-109.627 109.619 0 60.433 49.178 109.619 109.627 109.619 60.433 0 109.611-49.186 109.611-109.619 0-60.442-49.178-109.619-109.611-109.619zM260.77 295.493h-9.541v-66.722h-66.415v-9.541h66.415v-66.406h9.541v66.406h66.731v9.541h-66.731zM256-23.466c-136.44 0-247.466 111.001-247.466 247.466 0 136.44 111.027 247.466 247.466 247.466 136.465 0 247.466-111.027 247.466-247.466 0-136.465-111.001-247.466-247.466-247.466zM256 461.884c-131.157 0-237.883-106.727-237.883-237.884 0-131.183 106.727-237.884 237.883-237.884 131.183 0 237.884 106.701 237.884 237.884 0 131.158-106.701 237.884-237.884 237.884z" />
<glyph unicode="&#x42;" d="M145.041 200.038c0-61.662 49.988-111.685 111.667-111.685s111.667 50.014 111.667 111.685c0 61.534-49.784 111.445-111.283 111.659v46.524l-88.423-51.183 88.423-51.183v46.523c56.269-0.205 101.974-46.029 101.974-102.332 0-56.44-45.909-102.366-102.366-102.366-56.448 0-102.358 45.926-102.358 102.366h-9.302zM247.791 271.983l-60.527 35.055 60.527 35.029v-70.084zM256-23.466c-136.44 0-247.466 111.001-247.466 247.466 0 136.44 111.027 247.466 247.466 247.466 136.465 0 247.466-111.027 247.466-247.466 0-136.465-111.001-247.466-247.466-247.466zM256 461.884c-131.157 0-237.883-106.727-237.883-237.884 0-131.183 106.727-237.884 237.883-237.884 131.183 0 237.884 106.701 237.884 237.884 0 131.158-106.701 237.884-237.884 237.884z" />
<glyph unicode="&#x43;" d="M359.074 200.038c0-56.44-45.909-102.366-102.358-102.366s-102.366 45.926-102.366 102.366c0 56.303 45.704 102.127 101.974 102.332v-46.524l88.423 51.192-88.423 51.183v-46.524c-61.5-0.205-111.283-50.116-111.283-111.659 0-61.662 49.988-111.685 111.667-111.685s111.667 50.014 111.667 111.685h-9.301zM265.625 342.058l60.527-35.029-60.527-35.055v70.084zM256-23.466c-136.44 0-247.466 111.001-247.466 247.466 0 136.44 111.027 247.466 247.466 247.466 136.465 0 247.466-111.027 247.466-247.466 0-136.465-111.001-247.466-247.466-247.466zM256 461.884c-131.157 0-237.883-106.727-237.883-237.884 0-131.183 106.727-237.884 237.883-237.884 131.183 0 237.884 106.701 237.884 237.884 0 131.158-106.701 237.884-237.884 237.884z" />
<glyph unicode="&#x44;" d="M242.654 293.504v-38.17l9.216-0.094c63.991-0.623 100.053-29.082 109.457-86.793-35.158 40.678-75.725 40.695-109.38 40.704h-9.293v-37.846l-86.255 61.107 86.255 61.090zM251.946 311.501l-111.659-79.104 111.659-79.104v46.541c44.706-0.017 86.127-2.27 121.182-64.76 0 39.688-6.553 128.341-121.182 129.442v46.984zM256-23.466c-136.44 0-247.466 111.001-247.466 247.466 0 136.44 111.027 247.466 247.466 247.466 136.465 0 247.466-111.027 247.466-247.466 0-136.465-111.001-247.466-247.466-247.466zM256 461.884c-131.157 0-237.883-106.727-237.883-237.884 0-131.183 106.727-237.884 237.883-237.884 131.183 0 237.884 106.701 237.884 237.884 0 131.158-106.701 237.884-237.884 237.884z" />
<glyph unicode="&#x45;" d="M256.009 309.786c-52.267 0-93.031-32.717-142.984-85.76 43.042-45.354 79.181-85.82 142.984-85.82 63.786 0 110.686 51.226 142.976 84.856-33.058 39.416-79.957 86.725-142.976 86.725zM256.009 147.738c-56.653 0-90.855 35.141-129.843 76.279 46.422 48.401 83.311 76.237 129.843 76.237 55.065 0 98.108-39.714 130.142-76.8-31.505-32.845-74.154-75.716-130.142-75.716zM256.009 281.182c-31.539 0-57.199-25.651-57.199-57.191 0-31.531 25.66-57.19 57.199-57.19 31.531 0 57.19 25.659 57.19 57.19-0.009 31.539-25.659 57.19-57.19 57.19zM256.009 176.333c-26.282 0-47.675 21.376-47.675 47.659s21.401 47.65 47.675 47.65c26.283 0 47.65-21.376 47.65-47.65s-21.376-47.659-47.65-47.659zM256.009 257.365c-18.406 0-33.374-14.976-33.374-33.365s14.968-33.357 33.374-33.357c18.381 0 33.357 14.967 33.357 33.357s-14.985 33.365-33.357 33.365zM256.009 200.166c-13.15 0-23.842 10.683-23.842 23.825s10.692 23.834 23.842 23.834c13.125 0 23.817-10.692 23.817-23.834-0.009-13.133-10.692-23.825-23.817-23.825zM256-23.466c-136.44 0-247.466 111.001-247.466 247.466 0 136.44 111.027 247.466 247.466 247.466 136.465 0 247.466-111.027 247.466-247.466 0-136.465-111.001-247.466-247.466-247.466zM256 461.884c-131.157 0-237.883-106.727-237.883-237.884 0-131.183 106.727-237.884 237.883-237.884 131.183 0 237.884 106.701 237.884 237.884 0 131.158-106.701 237.884-237.884 237.884z" />
<glyph unicode="&#x46;" d="M384.315 279.125h-195.55l-15.795 65.135h-43.87v-9.318h36.566l45.355-187.119c-9.668-2.85-16.776-11.648-16.776-22.238 0-12.868 10.402-23.271 23.262-23.271 12.851 0 23.262 10.402 23.262 23.27 0 5.257-1.809 10.043-4.762 13.952h65.357c-2.952-3.909-4.753-8.695-4.753-13.952 0-12.868 10.411-23.27 23.245-23.27 12.868 0 23.27 10.402 23.27 23.27s-10.411 23.245-23.262 23.245h-99.516l-4.506 18.611h130.629l37.846 111.685zM319.855 139.546c7.714 0 13.978-6.264 13.978-13.952 0-7.714-6.264-13.952-13.978-13.952-7.688 0-13.943 6.238-13.943 13.952 0.009 7.68 6.255 13.952 13.943 13.952zM217.506 139.546c7.706 0 13.969-6.264 13.969-13.952 0-7.714-6.263-13.952-13.969-13.952-7.697 0-13.969 6.238-13.969 13.952 0.008 7.68 6.272 13.952 13.969 13.952zM213.589 176.743l-22.571 93.065h180.335l-31.548-93.065h-126.216zM256-23.466c-136.44 0-247.466 111.001-247.466 247.466 0 136.44 111.027 247.466 247.466 247.466 136.465 0 247.466-111.027 247.466-247.466 0-136.465-111.001-247.466-247.466-247.466zM256 461.884c-131.157 0-237.883-106.727-237.883-237.884 0-131.183 106.727-237.884 237.883-237.884 131.183 0 237.884 106.701 237.884 237.884 0 131.158-106.701 237.884-237.884 237.884z" />
<glyph unicode="&#x47;" d="M298.897 314.555v9.531c0 10.53-8.525 19.063-19.063 19.063h-47.667c-10.53 0-19.055-8.542-19.055-19.063v-9.531h-47.667v-9.531h9.814l9.549-181.103c0-10.538 8.542-19.063 19.064-19.063h104.857c10.53 0 19.063 8.534 19.063 19.063l9.37 181.103h9.404v9.531h-47.667zM222.643 324.087c0 5.257 4.267 9.532 9.523 9.532h47.667c5.265 0 9.531-4.275 9.531-9.532v-9.531h-66.722v9.531zM318.267 124.408l-0.017-0.248v-0.248c0-5.257-4.267-9.541-9.531-9.541h-104.858c-5.248 0-9.531 4.284-9.531 9.541v0.248l-0.017 0.248-9.523 180.608h142.831l-9.353-180.608zM251.23 285.961h9.549v-152.517h-9.549v152.517zM222.615 285.961l9.746-152.22-9.521-0.61-9.746 152.22 9.521 0.609zM289.348 286.245l9.522-0.59-9.444-152.524-9.522 0.589 9.444 152.524zM256-23.466c-136.44 0-247.466 111.001-247.466 247.466 0 136.44 111.027 247.466 247.466 247.466 136.465 0 247.466-111.027 247.466-247.466 0-136.465-111.001-247.466-247.466-247.466zM256 461.884c-131.157 0-237.883-106.727-237.883-237.884 0-131.183 106.727-237.884 237.883-237.884 131.183 0 237.884 106.701 237.884 237.884 0 131.158-106.701 237.884-237.884 237.884z" />
<glyph unicode="&#x48;" d="M207.556 217.702l48.444-48.443 48.443 48.443-6.741 6.742-36.933-36.941v150.887h-9.541v-150.887l-36.933 36.941zM279.825 290.731v-9.531h61.961v-162.048h-171.579v162.048h61.96v9.531h-71.493v-181.12h190.652v181.12zM256-23.466c-136.44 0-247.466 111.001-247.466 247.466 0 136.44 111.027 247.466 247.466 247.466 136.465 0 247.466-111.027 247.466-247.466 0-136.465-111.001-247.466-247.466-247.466zM256 461.884c-131.157 0-237.883-106.727-237.883-237.884 0-131.183 106.727-237.884 237.883-237.884 131.183 0 237.884 106.701 237.884 237.884 0 131.158-106.701 237.884-237.884 237.884z" />
<glyph unicode="&#x49;" d="M325.837 198.016l31.24-31.266h-56.286l-116.327 123.938h-47.786v-9.531h43.665l116.326-123.921h60.408l-31.163-31.173 6.741-6.741 42.666 42.683-42.752 42.752zM180.344 166.75h-43.665v-9.514h47.786l46.148 49.161-6.954 6.536zM300.791 281.156h56.286l-31.163-31.163 6.741-6.758 42.666 42.684-42.752 42.76-6.733-6.741 31.24-31.249h-60.407l-46.37-49.578 6.971-6.494zM256-23.466c-136.44 0-247.466 111.001-247.466 247.466 0 136.44 111.027 247.466 247.466 247.466 136.465 0 247.466-111.027 247.466-247.466 0-136.465-111.001-247.466-247.466-247.466zM256 461.884c-131.157 0-237.883-106.727-237.883-237.884 0-131.183 106.727-237.884 237.883-237.884 131.183 0 237.884 106.701 237.884 237.884 0 131.158-106.701 237.884-237.884 237.884z" />
<glyph unicode="&#x4a;" d="M340.454 322.765l-6.187-2.159c-0.154-0.060-16.93-5.803-43.426-5.803-13.5 0-26.368 2.748-38.792 5.393-12.578 2.679-25.575 5.453-39.347 5.453-27.443 0-36.762-5.897-37.734-6.571l-2.006-1.382v-196.77h9.319v88.977c3.703 1.442 12.766 4.019 30.422 4.019 12.791 0 24.746-2.551 37.41-5.248 12.919-2.748 26.249-5.598 40.738-5.598 28.219 0 45.781 6.067 46.507 6.323l3.123 1.092-0.026 112.273zM331.161 217.25c-6.033-1.639-20.429-4.864-40.32-4.864-13.5 0-26.368 2.739-38.792 5.393-12.578 2.68-25.575 5.453-39.347 5.453-15.070 0-24.67-1.784-30.422-3.498v92.603c3.712 1.442 12.817 4.010 30.422 4.010 12.791 0 24.746-2.551 37.41-5.248 12.919-2.748 26.249-5.59 40.738-5.59 18.739 0 32.785 2.671 40.32 4.54v-92.8zM256-23.466c-136.44 0-247.466 111.001-247.466 247.466 0 136.44 111.027 247.466 247.466 247.466 136.465 0 247.466-111.027 247.466-247.466 0-136.465-111.001-247.466-247.466-247.466zM256 461.884c-131.157 0-237.883-106.727-237.883-237.884 0-131.183 106.727-237.884 237.883-237.884 131.183 0 237.884 106.701 237.884 237.884 0 131.158-106.701 237.884-237.884 237.884z" />
<glyph unicode="&#x4b;" d="M270.771 293.504l86.255-61.099-86.255-61.107v37.846h-9.293c-33.656-0.009-74.223-0.017-109.38-40.704 9.395 57.702 45.457 86.169 109.457 86.793l9.216 0.094v38.178zM261.478 264.525c-114.637-1.109-121.182-89.762-121.182-129.442 35.055 62.49 76.476 64.743 121.182 64.76v-46.541l111.659 79.104-111.659 79.104v-46.984zM256-23.466c-136.44 0-247.466 111.001-247.466 247.466 0 136.44 111.027 247.466 247.466 247.466 136.465 0 247.466-111.027 247.466-247.466 0-136.465-111.001-247.466-247.466-247.466zM256 461.884c-131.157 0-237.883-106.727-237.883-237.884 0-131.183 106.727-237.884 237.883-237.884 131.183 0 237.884 106.701 237.884 237.884 0 131.158-106.701 237.884-237.884 237.884z" />
<glyph unicode="&#x4c;" d="M351.343 323.959h-190.686c-10.513 0-19.064-8.542-19.064-19.080v-123.99c0-10.53 8.55-19.063 19.064-19.063h133.794l37.811-37.786v37.786h19.063c10.53 0 19.063 8.542 19.063 19.063v123.99c0.017 10.538-8.525 19.081-19.046 19.081zM360.858 180.898c0-5.248-4.267-9.523-9.523-9.523h-28.603v-24.32l-24.312 24.312h-137.762c-5.239 0-9.531 4.267-9.531 9.523v123.99c0 5.265 4.301 9.531 9.531 9.531h190.678c5.248 0 9.523-4.267 9.523-9.531v-123.981zM265.541 242.85c0-5.264-4.267-9.531-9.531-9.531s-9.531 4.268-9.531 9.531c0 5.264 4.268 9.531 9.531 9.531s9.531-4.268 9.531-9.531zM303.675 242.85c0-5.264-4.267-9.531-9.531-9.531s-9.531 4.268-9.531 9.531c0 5.264 4.267 9.531 9.531 9.531s9.531-4.268 9.531-9.531zM228.31 242.85c0-5.264-4.268-9.531-9.531-9.531s-9.531 4.268-9.531 9.531c0 5.264 4.268 9.531 9.531 9.531s9.531-4.268 9.531-9.531zM256-23.466c-136.44 0-247.466 111.001-247.466 247.466 0 136.44 111.027 247.466 247.466 247.466 136.465 0 247.466-111.027 247.466-247.466 0-136.465-111.001-247.466-247.466-247.466zM256 461.884c-131.157 0-237.883-106.727-237.883-237.884 0-131.183 106.727-237.884 237.883-237.884 131.183 0 237.884 106.701 237.884 237.884 0 131.158-106.701 237.884-237.884 237.884z" />
<glyph unicode="&#x4d;" d="M256 343.151c-65.817 0-119.159-53.334-119.159-119.151 0-65.809 53.342-119.142 119.159-119.142s119.159 53.334 119.159 119.142c0 65.817-53.342 119.151-119.159 119.151zM256 114.381c-60.45 0-109.627 49.186-109.627 109.619 0 60.45 49.178 109.627 109.627 109.627s109.627-49.178 109.627-109.627c0-60.442-49.178-109.619-109.627-109.619zM194.355 228.77h123.606v-9.532h-123.606v9.531zM256-23.466c-136.44 0-247.466 111.001-247.466 247.466 0 136.44 111.027 247.466 247.466 247.466 136.465 0 247.466-111.027 247.466-247.466 0-136.465-111.001-247.466-247.466-247.466zM256 461.884c-131.157 0-237.883-106.727-237.883-237.884 0-131.183 106.727-237.884 237.883-237.884 131.183 0 237.884 106.701 237.884 237.884 0 131.158-106.701 237.884-237.884 237.884z" />
<glyph unicode="&#x4e;" d="M303.215 188.305c12.749 15.317 20.429 35.003 20.429 56.474 0 48.827-39.586 88.406-88.423 88.406-48.81 0-88.397-39.577-88.397-88.406 0-48.819 39.586-88.397 88.397-88.397 21.487 0 41.165 7.671 56.49 20.411l63.377-63.394 11.52 11.512-63.394 63.394zM235.221 165.683c-43.623 0-79.087 35.481-79.087 79.096s35.464 79.104 79.087 79.104 79.113-35.49 79.113-79.104-35.498-79.096-79.113-79.096zM256-23.466c-136.44 0-247.466 111.001-247.466 247.466 0 136.44 111.027 247.466 247.466 247.466 136.465 0 247.466-111.027 247.466-247.466 0-136.465-111.001-247.466-247.466-247.466zM256 461.884c-131.157 0-237.883-106.727-237.883-237.884 0-131.183 106.727-237.884 237.883-237.884 131.183 0 237.884 106.701 237.884 237.884 0 131.158-106.701 237.884-237.884 237.884z" />
<glyph unicode="&#x4f;" d="M140.399 227.968l84.694-37.299 41.6-83.704 106.326 232.644-232.619-111.642zM162.637 228.335l178.329 85.59-113.382-114.185-64.947 28.595zM266.36 128.452l-32.188 64.768 114.415 115.192-82.227-179.959zM256-23.466c-136.44 0-247.466 111.001-247.466 247.466 0 136.44 111.027 247.466 247.466 247.466 136.465 0 247.466-111.027 247.466-247.466 0-136.465-111.001-247.466-247.466-247.466zM256 461.884c-131.157 0-237.883-106.727-237.883-237.884 0-131.183 106.727-237.884 237.883-237.884 131.183 0 237.884 106.701 237.884 237.884 0 131.158-106.701 237.884-237.884 237.884z" />
<glyph unicode="&#x50;" d="M305.357 337.562v-10.001h54.699l-111.702-111.702 7.048-7.057 111.71 111.71v-54.707h9.993v71.757zM339.627 125.414h-179.661v169.685h130.56v9.976h-140.536v-189.654h199.629v128.563h-9.993zM256-23.466c-136.44 0-247.466 111.001-247.466 247.466 0 136.44 111.027 247.466 247.466 247.466 136.465 0 247.466-111.027 247.466-247.466 0-136.465-111.001-247.466-247.466-247.466zM256 461.884c-131.157 0-237.883-106.727-237.883-237.884 0-131.183 106.727-237.884 237.883-237.884 131.183 0 237.884 106.701 237.884 237.884 0 131.158-106.701 237.884-237.884 237.884z" />
<glyph unicode="&#x51;" d="M359.51 326.298c-2.722 2.722-6.289 4.087-9.865 4.087-3.584 0-7.159-1.365-9.873-4.087l-41.071-41.071v7.783h-148.881v-176.819h176.785v148.898h-8.542l41.447 41.463c5.462 5.453 5.462 14.293 0 19.746zM317.312 125.509h-158.2v158.2h138.061l-72.918-72.926v-20.139h19.362l73.694 73.702v-138.837zM352.93 313.13l-113.169-113.177h-6.203v6.981l112.793 112.785c1.178 1.178 2.56 1.348 3.286 1.348 0.709 0 2.099-0.179 3.286-1.365s1.374-2.568 1.374-3.294c0.009-0.708-0.171-2.082-1.365-3.277zM256-23.466c-136.44 0-247.466 111.001-247.466 247.466 0 136.44 111.027 247.466 247.466 247.466 136.465 0 247.466-111.027 247.466-247.466 0-136.465-111.001-247.466-247.466-247.466zM256 461.884c-131.157 0-237.883-106.727-237.883-237.884 0-131.183 106.727-237.884 237.883-237.884 131.183 0 237.884 106.701 237.884 237.884 0 131.158-106.701 237.884-237.884 237.884z" />
<glyph unicode="&#x52;" d="M355.951 161.886h-201.113l40.149 40.183-6.733 6.733-51.337-51.362 51.337-51.337 6.733 6.733-39.501 39.51h209.997v85.803h-9.531zM155.819 285.815h201.054l-39.834-39.842 6.733-6.742 51.311 51.328-51.337 51.337-6.724-6.733 39.817-39.825h-210.552v-85.794h9.531zM256-23.466c-136.44 0-247.466 111.001-247.466 247.466 0 136.44 111.027 247.466 247.466 247.466 136.465 0 247.466-111.027 247.466-247.466 0-136.465-111.001-247.466-247.466-247.466zM256 461.884c-131.157 0-237.883-106.727-237.883-237.884 0-131.183 106.727-237.884 237.883-237.884 131.183 0 237.884 106.701 237.884 237.884 0 131.158-106.701 237.884-237.884 237.884z" />
<glyph unicode="&#x53;" d="M304.443 230.298l-48.444 48.443-48.435-48.443 6.733-6.733 36.941 36.933v-150.887h9.531v150.887l36.933-36.933zM160.674 338.389v-181.111h71.493v9.531h-61.96v162.040h171.589v-162.040h-61.961v-9.531h71.493v181.111zM256-23.466c-136.44 0-247.466 111.001-247.466 247.466 0 136.44 111.027 247.466 247.466 247.466 136.465 0 247.466-111.027 247.466-247.466 0-136.465-111.001-247.466-247.466-247.466zM256 461.884c-131.157 0-237.883-106.727-237.883-237.884 0-131.183 106.727-237.884 237.883-237.884 131.183 0 237.884 106.701 237.884 237.884 0 131.158-106.701 237.884-237.884 237.884z" />
<glyph unicode="&#x54;" d="M334.967 309.947c-2.065 2.065-4.779 3.097-7.493 3.097-2.722 0-5.435-1.032-7.501-3.097l-31.19-31.19v5.913h-113.041v-134.263h134.238v113.058h-6.486l31.471 31.48c4.147 4.138 4.147 10.854 0 15.001zM302.925 157.483h-120.124v120.115h104.832l-55.364-55.373v-15.291h14.703l55.953 55.962v-105.412zM329.967 299.947l-85.93-85.939h-4.71v5.299l85.641 85.641c0.896 0.896 1.945 1.024 2.5 1.024 0.538 0 1.587-0.137 2.491-1.033s1.041-1.954 1.041-2.5c0.017-0.538-0.128-1.587-1.033-2.491zM255.642 361.199c-75.964 0-137.541-61.585-137.541-137.549s61.585-137.549 137.541-137.549 137.541 61.594 137.541 137.549-61.577 137.549-137.541 137.549zM255.642 97.127c-69.777 0-126.541 56.764-126.541 126.524 0 69.777 56.755 126.558 126.541 126.558 69.769 0 126.541-56.781 126.541-126.558 0-69.76-56.764-126.524-126.541-126.524zM256-23.466c-136.44 0-247.466 111.001-247.466 247.466 0 136.44 111.027 247.466 247.466 247.466 136.465 0 247.466-111.027 247.466-247.466 0-136.465-111.001-247.466-247.466-247.466zM256 461.884c-131.157 0-237.883-106.727-237.883-237.884 0-131.183 106.727-237.884 237.883-237.884 131.183 0 237.884 106.701 237.884 237.884 0 131.158-106.701 237.884-237.884 237.884z" />
<glyph unicode="&#x61;" d="M255.65 361.19c-75.989 0-137.549-61.576-137.549-137.541s61.56-137.541 137.549-137.541c75.963 0 137.532 61.577 137.532 137.541s-61.568 137.541-137.531 137.541zM255.65 97.11c-69.777 0-126.541 56.764-126.541 126.541 0 69.76 56.763 126.532 126.541 126.532 69.76 0 126.532-56.772 126.532-126.532 0-69.769-56.772-126.541-126.532-126.541zM261.146 306.176h-11v-77.022h-76.663v-11.008h76.663v-76.655h11v76.655h77.031v11.008h-77.031z" />
<glyph unicode="&#x62;" d="M127.565 195.993c0-71.185 57.702-128.913 128.896-128.913s128.896 57.736 128.896 128.913c0 71.031-57.464 128.649-128.452 128.887v53.701l-102.067-59.077 102.067-59.077v53.7c64.956-0.239 117.709-53.128 117.709-118.127 0-65.144-53-118.161-118.161-118.161s-118.153 53.009-118.153 118.161h-10.735zM246.169 279.040l-69.862 40.465 69.863 40.431v-80.896z" />
<glyph unicode="&#x63;" d="M374.622 195.993c0-65.144-53-118.161-118.152-118.161-65.161 0-118.161 53.009-118.161 118.161 0 64.998 52.762 117.888 117.709 118.127v-53.701l102.067 59.077-102.067 59.077v-53.7c-70.989-0.239-128.452-57.856-128.452-128.887 0-71.185 57.702-128.913 128.896-128.913s128.896 57.736 128.896 128.913h-10.735zM266.76 359.928l69.863-40.431-69.863-40.465v80.896z" />
<glyph unicode="&#x64;" d="M240.239 303.872v-44.066l10.641-0.111c73.873-0.717 115.499-33.57 126.344-100.182-40.584 46.959-87.407 46.976-126.25 46.985h-10.726v-43.69l-99.567 70.536 99.558 70.528zM250.965 324.65l-128.887-91.306 128.887-91.306v53.717c51.609-0.026 99.422-2.62 139.879-74.752 0 45.807-7.56 148.147-139.879 149.418v54.229z" />
<glyph unicode="&#x65;" d="M255.65 322.679c-60.331 0-107.383-37.768-165.052-98.995 49.681-52.352 91.4-99.063 165.052-99.063 73.634 0 127.769 59.127 165.035 97.954-38.152 45.483-92.288 100.104-165.035 100.104zM255.65 135.62c-65.4 0-104.874 40.559-149.888 88.055 53.581 55.877 96.162 88.005 149.888 88.005 63.565 0 113.246-45.841 150.221-88.653-36.361-37.922-85.589-87.407-150.221-87.407zM255.65 289.655c-36.411 0-66.031-29.611-66.031-66.014 0-36.394 29.619-66.022 66.031-66.022 36.395 0 66.014 29.627 66.014 66.022 0 36.411-29.619 66.014-66.014 66.014zM255.65 168.627c-30.336 0-55.040 24.678-55.040 55.014s24.704 55.006 55.040 55.006c30.336 0 55.006-24.67 55.006-55.006 0-30.327-24.67-55.014-55.006-55.014zM255.65 262.161c-21.248 0-38.519-17.288-38.519-38.519s17.28-38.511 38.519-38.511c21.214 0 38.511 17.28 38.511 38.511s-17.297 38.519-38.511 38.519zM255.65 196.139c-15.181 0-27.52 12.339-27.52 27.503s12.339 27.512 27.52 27.512c15.155 0 27.486-12.347 27.486-27.512s-12.33-27.503-27.486-27.503z" />
<glyph unicode="&#x66;" d="M403.763 287.283h-225.732l-18.227 75.187h-50.637v-10.76h42.206l52.352-215.995c-11.161-3.286-19.362-13.449-19.362-25.668 0-14.848 12.015-26.863 26.846-26.863 14.839 0 26.846 12.015 26.846 26.863 0 6.067-2.090 11.597-5.495 16.111h75.435c-3.405-4.514-5.487-10.043-5.487-16.111 0-14.848 12.015-26.863 26.837-26.863 14.848 0 26.863 12.015 26.863 26.863s-12.015 26.837-26.846 26.837h-114.875l-5.197 21.487h150.784l43.69 128.913zM329.361 126.157c8.909 0 16.137-7.236 16.137-16.111 0-8.909-7.228-16.103-16.137-16.103-8.875 0-16.094 7.202-16.094 16.103 0 8.883 7.211 16.111 16.094 16.111zM211.217 126.157c8.892 0 16.119-7.236 16.119-16.111 0-8.909-7.227-16.103-16.119-16.103s-16.119 7.202-16.119 16.103c-0.008 8.883 7.227 16.111 16.119 16.111zM206.686 169.096l-26.061 107.426h208.162l-36.411-107.426h-145.69z" />
<glyph unicode="&#x67;" d="M305.161 328.175v11.008c0 12.152-9.839 22.008-22.007 22.008h-55.023c-12.151 0-21.99-9.856-21.99-22.008v-11.008h-55.023v-11h11.323l11.025-209.058c0-12.16 9.856-22.007 22.007-22.007h121.029c12.151 0 22.007 9.848 22.007 22.007l10.82 209.058h10.854v11h-55.023zM217.139 339.183c0 6.067 4.923 11 10.991 11h55.023c6.075 0 11-4.933 11-11v-11.008h-77.013v11.008zM327.518 108.68l-0.017-0.281v-0.281c0-6.067-4.933-11.008-11.008-11.008h-121.029c-6.059 0-11.008 4.941-11.008 11.008v0.281l-0.017 0.29-10.991 208.478h164.864l-10.794-208.486zM250.137 295.168h11.025v-176.060h-11.025v176.060zM217.111 295.17l11.251-175.716-10.986-0.704-11.251 175.716 10.986 0.704zM294.131 295.501l10.987-0.68-10.901-176.066-10.987 0.68 10.901 176.066z" />
<glyph unicode="&#x68;" d="M199.722 216.38l55.928-55.919 55.919 55.919-7.791 7.782-42.632-42.641v174.166h-11.008v-174.166l-42.632 42.641zM283.153 300.68v-11.008h71.518v-187.051h-198.059v187.050h71.526v11.008h-82.526v-209.066h220.066v209.066z" />
<glyph unicode="&#x69;" d="M336.256 193.656l36.062-36.087h-64.973l-134.272 143.061h-55.16v-11.008h50.398l134.272-143.045h69.735l-35.968-35.976 7.774-7.783 49.255 49.272-49.349 49.349zM168.311 157.568h-50.398v-10.991h55.16l53.265 56.755-8.022 7.543zM307.345 289.621h64.973l-35.968-35.968 7.774-7.799 49.255 49.263-49.349 49.357-7.774-7.774 36.062-36.071h-69.734l-53.521-57.225 8.047-7.501z" />
<glyph unicode="&#x6a;" d="M353.127 337.655l-7.142-2.491c-0.179-0.068-19.541-6.698-50.134-6.698-15.582 0-30.438 3.166-44.774 6.221-14.524 3.097-29.525 6.298-45.423 6.298-31.675 0-42.436-6.81-43.554-7.586l-2.313-1.596v-227.14h10.761v102.725c4.275 1.664 14.728 4.642 35.114 4.642 14.762 0 28.57-2.944 43.179-6.058 14.908-3.175 30.302-6.459 47.019-6.459 32.572 0 52.847 6.998 53.683 7.296l3.601 1.263-0.017 129.587zM342.4 215.859c-6.963-1.886-23.577-5.615-46.541-5.615-15.582 0-30.438 3.158-44.774 6.221-14.524 3.089-29.525 6.298-45.423 6.298-17.391 0-28.476-2.057-35.114-4.036v106.889c4.292 1.664 14.788 4.633 35.114 4.633 14.762 0 28.57-2.952 43.178-6.059 14.908-3.174 30.302-6.451 47.019-6.451 21.632 0 37.846 3.080 46.541 5.239v-107.119z" />
<glyph unicode="&#x6b;" d="M272.691 303.872l99.567-70.528-99.567-70.536v43.682h-10.726c-38.844-0.009-85.674-0.026-126.25-46.985 10.846 66.611 52.471 99.464 126.344 100.182l10.641 0.111v44.074zM261.965 270.43c-132.318-1.28-139.879-103.612-139.879-149.418 40.465 72.132 88.278 74.726 139.879 74.752v-53.717l128.887 91.306-128.887 91.306v-54.229z" />
<glyph unicode="&#x6c;" d="M365.696 339.038h-220.101c-12.135 0-22.007-9.856-22.007-22.024v-143.121c0-12.151 9.873-22.007 22.007-22.007h154.445l43.648-43.623v43.623h22.007c12.151 0 22.007 9.856 22.007 22.007v143.121c0 12.168-9.856 22.024-22.007 22.024zM376.687 173.892c0-6.058-4.923-10.991-10.991-10.991h-33.024v-28.066l-28.066 28.066h-159.010c-6.042 0-11.008 4.933-11.008 10.991v143.121c0 6.075 4.958 11.008 11.008 11.008h220.101c6.058 0 10.991-4.933 10.991-11.008v-143.121zM255.65 256.418c-6.093 0-11.025-4.923-11.025-10.991 0-6.093 4.933-11.017 11.025-11.017 6.059 0 10.991 4.933 10.991 11.017 0 6.067-4.923 10.991-10.991 10.991zM310.682 245.41c0-6.079-4.928-11.008-11.008-11.008s-11.008 4.928-11.008 11.008c0 6.079 4.928 11.008 11.008 11.008s11.008-4.928 11.008-11.008zM212.677 256.418c-6.093 0-11.025-4.923-11.025-10.991 0-6.093 4.933-11.017 11.025-11.017 6.059 0 10.991 4.933 10.991 11.017 0 6.067-4.933 10.991-10.991 10.991z" />
<glyph unicode="&#x6d;" d="M255.642 361.19c-75.972 0-137.549-61.568-137.549-137.541 0-75.964 61.577-137.531 137.549-137.531s137.549 61.568 137.549 137.531c0 75.972-61.568 137.541-137.549 137.541zM255.642 97.11c-69.777 0-126.541 56.772-126.541 126.533 0 69.777 56.763 126.541 126.541 126.541s126.541-56.763 126.541-126.541c0.009-69.76-56.764-126.533-126.541-126.533zM184.49 229.154h142.678v-11h-142.678v11z" />
<glyph unicode="&#x6e;" d="M310.144 182.442c14.72 17.681 23.577 40.406 23.577 65.186 0 56.362-45.696 102.050-102.067 102.050-56.346 0-102.033-45.679-102.033-102.050 0-56.354 45.696-102.041 102.033-102.041 24.807 0 47.514 8.849 65.203 23.56l73.156-73.173 13.295 13.286-73.165 73.182zM231.655 156.33c-50.355 0-91.29 40.952-91.29 91.298s40.943 91.306 91.29 91.306 91.323-40.96 91.323-91.306-40.969-91.298-91.323-91.298z" />
<glyph unicode="&#x6f;" d="M122.206 228.224l97.766-43.050 48.017-96.615 122.726 268.553-268.51-128.887zM147.874 228.65l205.85 98.79-130.885-131.798-74.966 33.007zM267.606 113.357l-37.162 74.769 132.071 132.966-94.908-207.736z" />
<glyph unicode="&#x70;" d="M312.618 354.731v-11.537h63.147l-128.947-128.947 8.141-8.141 128.947 128.947v-63.147h11.537v82.825zM352.171 109.849h-207.377v195.874h150.707v11.512h-162.227v-218.923h230.434v148.403h-11.537z" />
<glyph unicode="&#x71;" d="M375.125 341.735c-3.14 3.14-7.262 4.71-11.384 4.71-4.139 0-8.26-1.579-11.401-4.71l-47.411-47.411v8.986h-171.853v-204.101h204.075v171.87h-9.865l47.846 47.855c6.298 6.298 6.298 16.503-0.009 22.801zM326.417 109.961h-182.613v182.605h159.369l-84.165-84.182v-23.245h22.349l85.061 85.077v-160.256zM367.539 326.536l-130.637-130.646h-7.16v8.055l130.201 130.193c1.357 1.357 2.961 1.561 3.798 1.561 0.819 0 2.423-0.205 3.798-1.579 1.374-1.365 1.587-2.961 1.587-3.806-0.009-0.81-0.214-2.406-1.587-3.781z" />
<glyph unicode="&#x72;" d="M371.021 151.945h-232.149l46.344 46.387-7.774 7.774-59.264-59.289 59.264-59.255 7.774 7.765-45.594 45.611h242.406v99.046h-11.008zM140.006 295.006h232.072l-45.978-45.994 7.774-7.774 59.23 59.247-59.255 59.255-7.765-7.774 45.961-45.977h-243.047v-99.021h11.008z" />
<glyph unicode="&#x73;" d="M311.569 230.921l-55.919 55.919-55.919-55.919 7.774-7.774 42.641 42.632v-174.166h11.008v174.166l42.632-42.632zM145.613 355.687v-209.050h82.526v10.991h-71.526v187.059h198.059v-187.059h-71.518v-10.991h82.526v209.050z" />
<glyph unicode="&#x74;" d="M334.967 309.947c-2.065 2.065-4.779 3.097-7.493 3.097-2.722 0-5.435-1.032-7.501-3.097l-31.19-31.19v5.913h-113.041v-134.263h134.238v113.058h-6.486l31.471 31.48c4.147 4.138 4.147 10.854 0 15.001zM302.925 157.483h-120.124v120.115h104.832l-55.364-55.373v-15.291h14.703l55.953 55.962v-105.412zM329.967 299.947l-85.93-85.939h-4.71v5.299l85.641 85.641c0.896 0.896 1.945 1.024 2.5 1.024 0.538 0 1.587-0.137 2.491-1.033s1.041-1.954 1.041-2.5c0.017-0.538-0.128-1.587-1.033-2.491zM255.642 361.199c-75.964 0-137.541-61.585-137.541-137.549s61.585-137.549 137.541-137.549 137.541 61.594 137.541 137.549-61.577 137.549-137.541 137.549zM255.642 97.127c-69.777 0-126.541 56.764-126.541 126.524 0 69.777 56.755 126.558 126.541 126.558 69.769 0 126.541-56.781 126.541-126.558 0-69.76-56.764-126.524-126.541-126.524z" />
</font>
</defs>
</svg>
