<?xml version="1.0" standalone="no"?>
<!DOCTYPE svg PUBLIC "-//W3C//DTD SVG 1.1//EN" "http://www.w3.org/Graphics/SVG/1.1/DTD/svg11.dtd" >
<svg xmlns="http://www.w3.org/2000/svg">
<metadata>Generated by IcoMoon</metadata>
<defs>
<font id="icomoon" horiz-adv-x="512">
<font-face units-per-em="512" ascent="480" descent="-32" />
<missing-glyph horiz-adv-x="512" />
<glyph unicode="&#x20;" d="" horiz-adv-x="256" />
<glyph unicode="&#x41;" d="M136.849 343.134v-238.268h238.302v238.268h-238.302zM365.619 114.389h-219.256v171.571h219.256v-171.571zM365.619 295.483h-219.256v38.161h219.256v-38.161zM198.81 319.317h147.746v-9.523h-147.746v9.523zM160.674 319.317h9.531v-9.523h-9.531v9.523zM179.738 319.317h9.531v-9.523h-9.531v9.523zM256-23.466c-136.44 0-247.466 111.001-247.466 247.466 0 136.44 111.027 247.466 247.466 247.466 136.465 0 247.466-111.027 247.466-247.466 0-136.465-111.001-247.466-247.466-247.466zM256 461.884c-131.157 0-237.883-106.727-237.883-237.884 0-131.183 106.727-237.884 237.883-237.884 131.183 0 237.884 106.701 237.884 237.884 0 131.158-106.701 237.884-237.884 237.884z" />
<glyph unicode="&#x42;" d="M273.238 302.327c34.637 0 62.814-28.168 62.814-62.831 0-0.179-0.026-0.393-0.043-0.571-0.026-0.47-0.060-0.93-0.060-1.399l-0.239-9.498 9.514-0.025c23.014-0.077 41.736-18.841 41.736-41.89 0-22.938-18.688-41.728-41.651-41.839l-2.031-0.026h-170.334c-25.625 0.026-46.481 20.889-46.481 46.524 0 19.857 12.638 37.538 31.446 43.981l5.239 1.784 0.922 5.462c2.279 13.465 13.841 23.219 27.486 23.219 4.352 0 8.55-1.007 12.493-2.978l8.482-4.267 4.088 8.567c10.393 21.726 32.623 35.789 56.619 35.789zM273.238 311.62c-28.697 0-53.41-16.802-65.016-41.054-5.026 2.534-10.675 3.985-16.674 3.985-18.415 0-33.673-13.415-36.667-30.985-21.93-7.535-37.734-28.271-37.734-52.787 0-30.805 24.977-55.791 55.782-55.817h172.424c28.143 0.154 50.91 22.989 50.91 51.157 0 28.219-22.818 51.106-51.021 51.183 0.017 0.751 0.111 1.476 0.111 2.202 0.009 39.834-32.281 72.115-72.115 72.115zM256-23.466c-136.44 0-247.466 111.001-247.466 247.466 0 136.44 111.027 247.466 247.466 247.466 136.465 0 247.466-111.027 247.466-247.466 0-136.465-111.001-247.466-247.466-247.466zM256 461.884c-131.157 0-237.883-106.727-237.883-237.884 0-131.183 106.727-237.884 237.883-237.884 131.183 0 237.884 106.701 237.884 237.884 0 131.158-106.701 237.884-237.884 237.884z" />
<glyph unicode="&#x43;" d="M370.389 309.786h-228.779c-7.876 0-14.293-6.392-14.293-14.293v-142.993c0-7.902 6.417-14.293 14.293-14.293h228.77c7.902 0 14.293 6.392 14.293 14.293v142.993c0.009 7.902-6.383 14.293-14.285 14.293zM375.159 152.507c0-2.628-2.151-4.745-4.77-4.745h-228.779c-2.629 0-4.744 2.125-4.744 4.745v90.555h238.293v-90.555zM375.159 252.587h-238.293v19.097h238.293v-19.097zM375.159 281.199h-238.293v14.293c0 2.628 2.125 4.77 4.744 4.77h228.77c2.628 0 4.77-2.151 4.77-4.77v-14.293zM155.904 176.35h95.334v-9.549h-95.334v9.549zM155.904 204.937h57.199v-9.523h-57.199v9.523zM327.347 166.801h19.362c5.171 0 9.387 4.139 9.387 9.25v0.589c0 5.094-4.216 9.25-9.387 9.25h-19.362c-5.171 0-9.387-4.164-9.387-9.25v-0.58c0-5.12 4.216-9.259 9.387-9.259zM256-23.466c-136.44 0-247.466 111.001-247.466 247.466 0 136.44 111.027 247.466 247.466 247.466 136.465 0 247.466-111.027 247.466-247.466 0-136.465-111.001-247.466-247.466-247.466zM256 461.884c-131.157 0-237.883-106.727-237.883-237.884 0-131.183 106.727-237.884 237.883-237.884 131.183 0 237.884 106.701 237.884 237.884 0 131.158-106.701 237.884-237.884 237.884z" />
<glyph unicode="&#x44;" d="M256 295.416c-39.483 0-71.493-32.008-71.493-71.493s32.008-71.493 71.493-71.493c39.483 0 71.493 32.008 71.493 71.493s-32.008 71.493-71.493 71.493zM256 161.971c-34.159 0-61.944 27.793-61.944 61.943s27.793 61.969 61.944 61.969c34.159 0 61.969-27.819 61.969-61.969s-27.81-61.943-61.969-61.943zM251.281 366.985h9.523v-57.276h-9.523v57.276zM251.281 138.137h9.523v-57.122h-9.523v57.122zM113.016 228.77h57.199v-9.549h-57.199v9.549zM341.786 228.77h57.199v-9.549h-57.199v9.549zM353.777 328.783l6.735-6.733-39.849-39.859-6.735 6.733 39.849 39.86zM158.307 119.805l-6.734 6.734 39.854 39.854 6.734-6.734-39.854-39.854zM158.307 328.773l39.854-39.854-6.734-6.734-39.854 39.854 6.734 6.734zM353.769 119.842l-39.831 39.859 6.767 6.762 39.83-39.859-6.767-6.762zM256-23.466c-136.44 0-247.466 111.001-247.466 247.466 0 136.44 111.027 247.466 247.466 247.466 136.465 0 247.466-111.027 247.466-247.466 0-136.465-111.001-247.466-247.466-247.466zM256 461.884c-131.157 0-237.883-106.727-237.883-237.884 0-131.183 106.727-237.884 237.883-237.884 131.183 0 237.884 106.701 237.884 237.884 0 131.158-106.701 237.884-237.884 237.884z" />
<glyph unicode="&#x45;" d="M338.091 255.898l-79.062 79.061h-83.746v-223.334h162.858v144.273h-0.051zM259.029 321.809l61.278-61.278h-61.278v61.278zM184.601 120.943v204.723h65.135v-74.454h79.087v-130.27h-144.222zM256-23.466c-136.44 0-247.466 111.001-247.466 247.466 0 136.44 111.027 247.466 247.466 247.466 136.465 0 247.466-111.027 247.466-247.466 0-136.465-111.001-247.466-247.466-247.466zM256 461.884c-131.157 0-237.883-106.727-237.883-237.884 0-131.183 106.727-237.884 237.883-237.884 131.183 0 237.884 106.701 237.884 237.884 0 131.158-106.701 237.884-237.884 237.884z" />
<glyph unicode="&#x46;" d="M203.315 318.856c-7.407-15.018-11.315-31.556-11.315-48.563 0-60.911 49.553-110.438 110.438-110.438 17.911 0 35.209 4.275 50.714 12.322-18.765-33.758-54.519-55.577-94.805-55.577-59.904 0-108.655 48.726-108.655 108.655 0.008 39.185 21.035 74.47 53.624 93.602zM228.685 339.303c-50.765-13.175-88.303-59.178-88.303-114.065 0-65.161 52.839-117.974 117.974-117.974 55.74 0 102.332 38.707 114.68 90.658-18.227-17.784-43.102-28.757-70.596-28.757-55.842 0-101.145 45.252-101.145 101.12 0.008 26.718 10.462 50.952 27.392 69.017zM256-23.466c-136.44 0-247.466 111.001-247.466 247.466 0 136.44 111.027 247.466 247.466 247.466 136.465 0 247.466-111.027 247.466-247.466 0-136.465-111.001-247.466-247.466-247.466zM256 461.884c-131.157 0-237.883-106.727-237.883-237.884 0-131.183 106.727-237.884 237.883-237.884 131.183 0 237.884 106.701 237.884 237.884 0 131.158-106.701 237.884-237.884 237.884z" />
<glyph unicode="&#x47;" d="M127.317 300.237v-190.643h257.365v190.643h-257.365zM375.159 119.151h-238.319v171.571h238.319v-171.571zM146.389 319.309h219.238v-9.523h-219.238v9.523zM165.453 338.398h181.12v-9.549h-181.12v9.549zM256-23.466c-136.44 0-247.466 111.001-247.466 247.466 0 136.44 111.027 247.466 247.466 247.466 136.465 0 247.466-111.027 247.466-247.466 0-136.465-111.001-247.466-247.466-247.466zM256 461.884c-131.157 0-237.883-106.727-237.883-237.884 0-131.183 106.727-237.884 237.883-237.884 131.183 0 237.884 106.701 237.884 237.884 0 131.158-106.701 237.884-237.884 237.884z" />
<glyph unicode="&#x48;" d="M256.717 339.618l-46.532-46.524v18.611h-37.214v-55.842l-32.776-32.776 6.588-6.579 109.935 109.918 109.935-109.918 6.57 6.579-116.505 116.531zM200.892 283.776l-18.611-18.585v37.205h18.611v-18.619zM172.97 218.641v-111.685h65.135v65.161h37.214v-65.161h65.161v111.685l-83.763 83.746-83.746-83.746zM331.161 116.284h-46.524v65.152h-55.842v-65.161h-46.524v98.509l74.445 74.454 74.445-74.454v-98.5zM256-23.466c-136.44 0-247.466 111.001-247.466 247.466 0 136.44 111.027 247.466 247.466 247.466 136.465 0 247.466-111.027 247.466-247.466 0-136.465-111.001-247.466-247.466-247.466zM256 461.884c-131.157 0-237.883-106.727-237.883-237.884 0-131.183 106.727-237.884 237.883-237.884 131.183 0 237.884 106.701 237.884 237.884 0 131.158-106.701 237.884-237.884 237.884z" />
<glyph unicode="&#x49;" d="M322.21 302.387h-130.645l-51.183-55.842v-102.358h232.653v102.358l-50.825 55.842zM195.653 293.069h122.436l42.351-46.523h-71.159c0-17.425-15.155-31.505-32.563-31.505-17.434 0-32.581 14.080-32.581 31.505h-71.117l42.632 46.524zM363.716 153.481h-214.016v83.772h66.27c4.454-17.809 21.308-31.505 40.738-31.505s36.267 13.696 40.712 31.505h66.304v-83.772zM256-23.466c-136.44 0-247.466 111.001-247.466 247.466 0 136.44 111.027 247.466 247.466 247.466 136.465 0 247.466-111.027 247.466-247.466 0-136.465-111.001-247.466-247.466-247.466zM256 461.884c-131.157 0-237.883-106.727-237.883-237.884 0-131.183 106.727-237.884 237.883-237.884 131.183 0 237.884 106.701 237.884 237.884 0 131.158-106.701 237.884-237.884 237.884z" />
<glyph unicode="&#x4a;" d="M361.873 318.686l-11.178 11.187c-17.724 17.715-46.524 17.715-64.239 0l-42.351-42.377 6.725-6.733 42.376 42.376c13.986 13.978 36.77 13.978 50.739 0l11.187-11.187c13.986-14.003 13.986-36.753 0-50.731l-60.032-60.066c-14.003-13.978-36.77-13.978-50.757 0l-6.733-6.733c8.84-8.858 20.471-13.261 32.111-13.261s23.253 4.403 32.111 13.261l60.041 60.041c17.698 17.707 17.698 46.532 0 64.222zM218.803 124.885c-6.775-6.793-15.795-10.53-25.378-10.53-9.575 0-18.594 3.738-25.378 10.53l-11.178 11.161c-13.977 14.003-13.977 36.753 0 50.757l60.041 60.032c13.986 14.003 36.77 14.003 50.757 0l11.178-11.187 6.733 6.733-11.161 11.187c-17.715 17.715-46.541 17.715-64.256 0l-60.041-60.032c-17.69-17.715-17.69-46.515 0-64.231l11.187-11.161c8.576-8.593 19.985-13.312 32.111-13.312 12.143 0 23.543 4.719 32.111 13.312l39.961 39.936-6.733 6.733-39.953-39.928zM256-23.466c-136.44 0-247.466 111.001-247.466 247.466 0 136.44 111.027 247.466 247.466 247.466 136.465 0 247.466-111.027 247.466-247.466 0-136.465-111.001-247.466-247.466-247.466zM256 461.884c-131.157 0-237.883-106.727-237.883-237.884 0-131.183 106.727-237.884 237.883-237.884 131.183 0 237.884 106.701 237.884 237.884 0 131.158-106.701 237.884-237.884 237.884z" />
<glyph unicode="&#x4b;" d="M141.611 305.041v-38.136h228.77v38.136h-228.77zM360.841 276.429h-209.707v19.064h209.707v-19.064zM141.611 204.937h228.77v38.136h-228.77v-38.136zM151.134 233.549h209.707v-19.089h-209.707v19.089zM141.611 142.959h228.77v38.161h-228.77v-38.161zM151.134 171.571h209.707v-19.063h-209.707v19.063zM256-23.466c-136.44 0-247.466 111.001-247.466 247.466 0 136.44 111.027 247.466 247.466 247.466 136.465 0 247.466-111.027 247.466-247.466 0-136.465-111.001-247.466-247.466-247.466zM256 461.884c-131.157 0-237.883-106.727-237.883-237.884 0-131.183 106.727-237.884 237.883-237.884 131.183 0 237.884 106.701 237.884 237.884 0 131.158-106.701 237.884-237.884 237.884z" />
<glyph unicode="&#x4c;" d="M319.343 352.683h-126.703c-7.134 0-12.903-5.777-12.903-12.911v-231.56c0-7.134 5.768-12.885 12.903-12.885h126.703c7.134 0 12.911 5.752 12.911 12.885v231.552c0.009 7.134-5.777 12.919-12.911 12.919zM322.714 108.211c0-1.861-1.502-3.37-3.37-3.37h-126.703c-1.861 0-3.37 1.51-3.37 3.37v44.262h133.436v-44.262zM322.714 161.988h-133.435v152.371h133.435v-152.371zM322.714 323.882h-133.435v15.881c0 1.886 1.511 3.37 3.37 3.37h126.703c1.869 0 3.37-1.485 3.37-3.37v-15.881zM241.698 133.453h28.586v-9.549h-28.587v9.549zM256-23.466c-136.44 0-247.466 111.001-247.466 247.466 0 136.44 111.027 247.466 247.466 247.466 136.465 0 247.466-111.027 247.466-247.466 0-136.465-111.001-247.466-247.466-247.466zM256 461.884c-131.157 0-237.883-106.727-237.883-237.884 0-131.183 106.727-237.884 237.883-237.884 131.183 0 237.884 106.701 237.884 237.884 0 131.158-106.701 237.884-237.884 237.884z" />
<glyph unicode="&#x4d;" d="M385.485 312.943h-258.969c-8.303 0-15.061-6.733-15.061-15.035v-147.789c0-8.329 6.767-15.062 15.061-15.062h258.978c8.329 0 15.062 6.733 15.062 15.062v147.789c0 8.303-6.741 15.036-15.070 15.036zM145.032 146.193h-18.526c-2.176 0-3.934 1.75-3.934 3.925v147.789c0 2.176 1.766 3.951 3.934 3.951h18.526v-155.665zM358.349 146.193h-202.189v155.665h202.189v-155.665zM389.427 150.118c0-2.176-1.767-3.925-3.934-3.925h-16.034v155.665h16.034c2.176 0 3.934-1.775 3.934-3.951v-147.789zM373.393 240.683h11.111v-33.357h-11.111v33.357zM256-23.466c-136.44 0-247.466 111.001-247.466 247.466 0 136.44 111.027 247.466 247.466 247.466 136.465 0 247.466-111.027 247.466-247.466 0-136.465-111.001-247.466-247.466-247.466zM256 461.884c-131.157 0-237.883-106.727-237.883-237.884 0-131.183 106.727-237.884 237.883-237.884 131.183 0 237.884 106.701 237.884 237.884 0 131.158-106.701 237.884-237.884 237.884z" />
<glyph unicode="&#x4e;" d="M256.709 334.959c-61.679 0-111.667-49.988-111.667-111.659 0-61.688 49.989-111.685 111.667-111.685s111.667 49.988 111.667 111.685c0 61.671-49.988 111.659-111.667 111.659zM256.709 120.943c-27.776 0-53 11.127-71.466 29.15 10.479 4.275 31.369 11.725 45.090 15.795 7.978 2.509 7.978 9.241 7.978 14.626 0 4.48-0.307 11.077-2.935 16.674-1.792 3.806-3.84 10.36-4.301 15.505-0.102 1.195-0.666 2.304-1.57 3.080-1.322 1.169-4.011 5.385-5.718 13.901-1.349 6.758-0.776 8.234-0.231 9.66 0.239 0.623 0.47 1.22 0.649 1.886 1.118 4.088-0.119 17.502-1.476 24.96-0.597 3.208 0.154 12.424 6.203 20.164 5.427 6.938 13.637 10.794 24.115 11.469h8.823c10.76-0.674 18.969-4.531 24.406-11.469 6.058-7.74 6.793-16.956 6.195-20.19-1.349-7.433-2.603-20.839-1.485-24.926 0.197-0.674 0.418-1.272 0.649-1.886 0.555-1.425 1.127-2.901-0.214-9.66-1.707-8.517-4.403-12.74-5.717-13.901-0.904-0.776-1.467-1.886-1.57-3.080-0.443-5.154-2.5-11.699-4.301-15.505-2.065-4.403-4.438-10.223-4.438-16.461 0-5.41 0-12.118 8.055-14.678 13.142-3.857 34.125-11.077 45.209-15.428-18.474-18.355-43.913-29.688-71.953-29.688zM335.411 157.935c-10.206 4.25-34.304 12.603-49.212 17.007-1.272 0.409-1.467 0.469-1.467 5.769 0 4.377 1.8 8.772 3.55 12.476 1.903 4.062 4.156 10.872 4.966 16.981 2.262 2.611 5.342 7.791 7.322 17.681 1.741 8.696 0.921 11.853-0.231 14.831-0.12 0.315-0.239 0.623-0.333 0.93-0.443 2.048 0.154 12.638 1.647 20.864 1.024 5.64-0.264 17.63-8.030 27.571-4.915 6.263-14.293 13.978-31.445 15.045h-9.404c-16.853-1.058-26.249-8.773-31.163-15.045-7.774-9.941-9.063-21.93-8.030-27.571 1.502-8.235 2.090-18.825 1.655-20.813-0.085-0.358-0.214-0.674-0.341-0.982-1.143-2.978-1.963-6.136-0.214-14.831 1.971-9.89 5.052-15.070 7.322-17.681 0.802-6.11 3.064-12.919 4.966-16.981 1.391-2.952 2.048-6.989 2.048-12.68 0-5.282-0.205-5.359-1.391-5.717-15.419-4.557-39.962-13.44-49.118-17.425-15.061 17.809-24.149 40.824-24.149 65.937 0 56.44 45.918 102.366 102.357 102.366s102.366-45.927 102.366-102.366c-0.009-24.849-8.909-47.633-23.671-65.365zM256-23.466c-136.44 0-247.466 111.001-247.466 247.466 0 136.44 111.027 247.466 247.466 247.466 136.465 0 247.466-111.027 247.466-247.466 0-136.465-111.001-247.466-247.466-247.466zM256 461.884c-131.157 0-237.883-106.727-237.883-237.884 0-131.183 106.727-237.884 237.883-237.884 131.183 0 237.884 106.701 237.884 237.884 0 131.158-106.701 237.884-237.884 237.884z" />
<glyph unicode="&#x4f;" d="M361.378 288.427h-30.225v25.549c0 11.571-9.387 20.966-20.992 20.966h-144.128c-11.571 0-20.983-9.395-20.983-20.966v-195.37c0-3.857 3.114-6.963 7.006-6.963h209.331c3.857 0 7.006 3.106 7.006 6.963v162.833c-0.017 3.857-3.158 6.989-7.014 6.989zM154.351 313.976c0 6.417 5.239 11.673 11.673 11.673h144.128c6.451 0 11.69-5.256 11.69-11.673v-25.549h-167.493v25.549zM359.074 120.926h-204.723v158.208h204.723v-158.208zM233.446 223.291c0-12.868 10.419-23.245 23.27-23.245 12.842 0 23.262 10.385 23.262 23.245 0 12.843-10.419 23.245-23.262 23.245-12.851 0-23.27-10.411-23.27-23.245zM270.669 223.291c0-7.688-6.264-13.952-13.952-13.952-7.706 0-13.952 6.264-13.952 13.952s6.255 13.952 13.952 13.952c7.688 0 13.952-6.263 13.952-13.952zM256-23.466c-136.44 0-247.466 111.001-247.466 247.466 0 136.44 111.027 247.466 247.466 247.466 136.465 0 247.466-111.027 247.466-247.466 0-136.465-111.001-247.466-247.466-247.466zM256 461.884c-131.157 0-237.883-106.727-237.883-237.884 0-131.183 106.727-237.884 237.883-237.884 131.183 0 237.884 106.701 237.884 237.884 0 131.158-106.701 237.884-237.884 237.884z" />
<glyph unicode="&#x50;" d="M256.709 339.618h-0.145c-0.043 0-0.086-0.026-0.137-0.026-64.111-0.128-116.036-52.164-116.036-116.309 0-64.128 51.925-116.156 116.036-116.293 0.051 0 0.094-0.026 0.137-0.026h0.145c64.231 0 116.318 52.113 116.318 116.318 0.009 64.248-52.087 116.335-116.318 116.335zM231.416 327.27c-8.986-9.369-16.581-23.586-22.007-41.011-10.095 3.081-19.789 7.117-28.962 12.015 13.756 13.977 31.309 24.201 50.969 28.996zM174.020 291.131c10.359-5.691 21.351-10.385 32.862-13.875-3.763-14.831-6.016-31.556-6.357-49.314h-50.714c1.032 23.911 9.941 45.841 24.209 63.19zM174.020 155.452c-14.268 17.349-23.177 39.27-24.209 63.19h50.714c0.341-17.758 2.594-34.483 6.357-49.314-11.512-3.498-22.502-8.183-32.862-13.875zM180.421 148.327c9.182 4.915 18.875 8.96 28.988 12.041 5.427-17.45 13.022-31.685 22.016-41.063-19.678 4.796-37.248 15.019-51.004 29.022zM252.058 116.906c-12.63 3.286-25.472 20.087-33.638 45.926 10.838 2.637 22.076 4.173 33.638 4.505v-50.432zM252.058 176.623c-12.433-0.333-24.525-1.997-36.181-4.839-3.482 13.721-5.641 29.517-5.99 46.856h42.163v-42.018zM252.058 227.934h-42.163c0.341 17.349 2.509 33.186 5.99 46.882 11.648-2.825 23.739-4.48 36.173-4.813v-42.070zM252.058 279.296c-11.554 0.333-22.792 1.861-33.621 4.506 8.167 25.813 20.992 42.59 33.621 45.875v-50.381zM339.379 291.158c14.285-17.34 23.193-39.271 24.235-63.215h-51.012c-0.333 17.733-2.586 34.457-6.341 49.288 11.597 3.49 22.681 8.175 33.118 13.927zM332.962 298.274c-9.259-4.915-19.029-9.011-29.235-12.091-5.435 17.502-13.082 31.795-22.101 41.165 19.815-4.736 37.504-15.018 51.337-29.073zM261.368 329.575c12.544-3.464 25.25-20.19 33.349-45.849-10.743-2.586-21.897-4.088-33.349-4.429v50.279zM261.368 270.003c12.33 0.333 24.329 1.971 35.882 4.787 3.49-13.721 5.64-29.534 5.982-46.856h-41.865v42.070zM261.368 218.641h41.865c-0.341-17.322-2.5-33.084-5.974-46.805-11.554 2.825-23.56 4.454-35.891 4.787v42.018zM261.368 117.009v50.329c11.452-0.333 22.605-1.834 33.357-4.429-8.098-25.685-20.813-42.437-33.357-45.901zM281.625 119.228c9.037 9.37 16.674 23.688 22.127 41.216 10.206-3.106 19.985-7.168 29.243-12.118-13.841-14.080-31.539-24.329-51.37-29.099zM339.405 155.452c-10.445 5.752-21.529 10.462-33.144 13.952 3.755 14.831 5.999 31.531 6.341 49.238h51.012c-1.041-23.919-9.95-45.824-24.209-63.19zM256-23.466c-136.44 0-247.466 111.001-247.466 247.466 0 136.44 111.027 247.466 247.466 247.466 136.465 0 247.466-111.027 247.466-247.466 0-136.465-111.001-247.466-247.466-247.466zM256 461.884c-131.157 0-237.883-106.727-237.883-237.884 0-131.183 106.727-237.884 237.883-237.884 131.183 0 237.884 106.701 237.884 237.884 0 131.158-106.701 237.884-237.884 237.884z" />
<glyph unicode="&#x51;" d="M354.134 254.72h-196.267v12.8h195.413v-12.8zM157.867 230.827h195.413v-12.8h-195.413v12.8zM157.867 193.28h195.413v-12.8h-195.413v12.8zM256-23.466c-136.534 0-247.466 110.933-247.466 247.466s110.933 247.466 247.466 247.466c136.534 0 247.466-110.933 247.466-247.466s-110.933-247.466-247.466-247.466zM256 462.080c-131.413 0-238.080-106.666-238.080-238.080s106.666-238.080 238.080-238.080c131.413 0 238.080 106.666 238.080 238.080s-106.666 238.080-238.080 238.080z" />
<glyph unicode="&#x52;" d="M248.209 303.224c0 6.075 0 11.785-0.017 17.485 0 3.166 0.077 6.34-0.025 9.506-0.069 1.869 0.657 2.526 2.509 2.483 3.055-0.102 6.144-0.17 9.199-0.017 2.219 0.119 2.774-0.768 2.757-2.841-0.086-8.072-0.034-16.154-0.026-24.226 0-0.615 0.077-1.221 0.162-2.219 1.391-0.059 2.765-0.179 4.13-0.179 18.219-0.009 36.421 0.009 54.622-0.025 12.049-0.009 19.61-7.697 19.618-19.832 0.017-12.467 0-24.952 0-37.419 0-1.212 0-2.415 0-4.096 5.598 0 10.88 0.025 16.171-0.008 5.913-0.042 10.692-2.543 14.31-7.108 2.62-3.294 3.909-7.108 3.909-11.375-0.026-34.466-0.017-68.933-0.017-103.39 0-4.19 0-4.216-4.087-4.19-6.272 0.060-5.376-0.649-5.376 5.376-0.026 33.322-0.017 66.671-0.017 100.010 0 7.808-3.379 11.204-11.221 11.204-65.869 0.008-131.72 0.008-197.572 0-7.031 0-10.599-3.567-10.599-10.573 0-33.843 0.008-67.712 0.008-101.538 0.008-4.514 0.034-4.514-4.463-4.497-0.819 0-1.63 0.103-2.449 0.026-2.040-0.222-2.629 0.7-2.611 2.663 0.060 8.704 0.008 17.382 0.025 26.078 0 26.087-0.042 52.164 0.017 78.25 0.017 11.281 7.808 18.995 19.131 19.089 4.181 0.042 8.38 0.145 12.57-0.042 2.535-0.102 3.345 0.726 3.32 3.294-0.119 12.877-0.069 25.771-0.060 38.656 0.034 11.742 7.672 19.439 19.379 19.456 17.672 0.034 35.379 0.025 53.069 0.034 0.99-0.034 2.014-0.034 3.635-0.034zM181.615 241.834c2.014 0 3.643 0 5.231 0 15.855 0 31.685 0 47.522 0 31.283 0 62.55 0.025 93.815-0.051 2.586 0 3.558 0.571 3.533 3.379-0.145 12.859-0.026 25.754-0.086 38.614-0.017 6.059-3.755 9.89-9.711 9.89-43.426 0.034-86.87 0.034-130.296 0.026-6.315 0-10.018-3.806-10.043-10.215-0.025-10.018 0.017-20.027 0.017-30.046 0.017-3.661 0.017-7.347 0.017-11.597zM125.952 97.673c-3.337 0-5.939 2.057-6.341 5.017-0.444 3.26 1.272 5.999 4.275 6.827 0.64 0.179 1.561 0.205 2.287 0.205 72.874 0.034 239.505 0.051 239.505 0.051 6.938 0 13.884-0.017 20.813-0.051 3.003-0.017 5.589-2.227 5.93-5.034 0.375-3.269-1.382-5.99-4.403-6.793-0.81-0.205-2.039-0.205-2.952-0.205l-259.115-0.017zM186.991 197.069c-0.956-1.45-1.485-2.449-2.21-3.303-6.357-7.416-14.865-10.615-24.184-12.015-1.425-0.214-4.13 0.214-4.309 0.879-0.571 2.074-0.29 4.411-0.137 6.622 0.017 0.333 1.126 0.7 1.792 0.827 1.988 0.443 4.045 0.657 6.016 1.161 8.832 2.313 15.266 7.399 18.944 15.966 0.649 1.485 2.619 3.021 4.165 3.269 1.152 0.179 3.191-1.433 3.823-2.731 5.179-10.522 13.883-15.846 25.131-17.297 9.199-1.186 18.193-0.486 26.343 4.616 4.48 2.808 7.739 6.664 9.549 11.631 0.793 2.21 1.937 3.968 4.471 3.899 2.313-0.051 3.541-1.57 4.438-3.644 2.373-5.445 6.315-9.634 11.579-12.245 13.329-6.63 26.743-6.853 39.817 0.768 4.352 2.551 7.176 6.502 9.046 11.264 0.615 1.613 2.483 3.379 4.104 3.823 2.116 0.572 3.584-1.288 4.565-3.311 4.608-9.481 12.519-14.533 22.639-16.469 3.738-0.717 5.829-4.745 3.976-8.089-0.367-0.64-1.92-1.007-2.858-0.887-10.291 1.263-19.26 5.257-26.189 13.201-0.461 0.529-0.683 1.263-1.255 2.329-9.147-12.433-21.351-16.248-35.012-16.086-13.509 0.137-25.558 4.182-34.663 15.599-8.661-11.904-20.958-15.719-34.517-15.633-13.415 0.060-25.566 4.139-35.064 15.855zM255.813 353.988c-0.162-2.816-0.256-4.906-0.358-6.664-1.834 0.315-4.207 1.408-5.035 0.691-1.246-1.058-1.382-3.387-1.988-5.111-8.303 5.274-9.131 20.13-2.073 26.471 1.544-2.603 3.081-5.231 4.633-7.851 0.367 0.12 0.734 0.222 1.118 0.341 2.927 6.041 2.117 12.382 0.93 18.765 14.029-7.817 20.677-26.001 8.379-38.929 0.086 4.95-1.382 8.857-5.607 12.288zM221.235 268.331c-0.751-1.314-1.093-2.236-1.673-2.936-6.332-7.577-14.848-10.948-24.278-12.433-1.57-0.256-3.874-1.203-4.429 1.681-0.922 4.889-0.239 6.486 3.226 6.963 8.84 1.229 16.171 4.923 21.009 12.706 0.87 1.382 1.238 3.131 2.253 4.327 1.075 1.305 2.629 2.885 4.071 3.004 1.246 0.102 3.141-1.425 3.865-2.714 9.617-17.416 34.679-23.663 51.448-12.714 4.429 2.885 7.731 6.656 9.558 11.639 0.793 2.193 1.937 3.968 4.471 3.909 2.287-0.051 3.481-1.596 4.446-3.627 4.557-9.575 12.689-14.302 22.741-16.281 4.207-0.853 6.127-3.994 4.233-7.749-0.435-0.853-2.637-1.314-3.917-1.135-8.764 1.28-16.768 4.386-23.305 10.649-1.314 1.263-2.731 2.415-4.403 3.865-8.286-11.349-20.548-15.146-34.116-15.087-13.457 0.069-25.549 4.198-35.2 15.931zM256-23.466c-136.44 0-247.466 111.001-247.466 247.466 0 136.44 111.027 247.466 247.466 247.466 136.465 0 247.466-111.027 247.466-247.466 0-136.465-111.001-247.466-247.466-247.466zM256 461.884c-131.157 0-237.883-106.727-237.883-237.884 0-131.183 106.727-237.884 237.883-237.884 131.183 0 237.884 106.701 237.884 237.884 0 131.158-106.701 237.884-237.884 237.884z" />
<glyph unicode="&#x53;" d="M254.976 357.922c-74.436 0-134.775-60.339-134.775-134.776s60.339-134.776 134.775-134.776 134.784 60.339 134.784 134.775-60.339 134.775-134.784 134.775zM170.684 132.377c0.785 1.604 1.698 3.158 2.774 4.634 4.787 6.519 11.375 10.777 18.585 14.029 8.218 3.704 16.631 6.963 24.892 10.565 2.893 1.263 5.649 2.875 8.354 4.505 8.013 4.847 11.947 11.947 11.512 21.385-0.042 0.93-0.008 1.877-0.008 2.927-11.699 1.767-23.56 2.44-34.287 8.243 3.763 7.108 4.352 14.626 4.762 22.127 0.76 13.773 1.032 27.571 2.065 41.318 0.726 9.643 2.841 19.098 7.227 27.87 6.255 12.502 16.504 19.687 30.046 22.511 6.767 1.416 13.619 2.321 19.96-1.032 3.925-2.074 7.723-3.2 12.194-3.516 9.907-0.7 15.932-6.853 19.61-15.693 3.303-7.936 4.728-16.307 5.086-24.772 0.606-14.25 0.674-28.527 1.058-42.794 0.197-7.441 0.384-14.907 2.841-22.050 0.435-1.255 1.033-2.449 1.596-3.781-3.806-2.697-8.141-4.010-12.553-4.856-6.904-1.331-13.875-2.355-20.839-3.345-1.604-0.222-2.005-0.734-1.809-2.227 0.197-1.485 0.341-3.021 0.248-4.505-0.426-6.827 2.969-11.887 8.132-15.479 4.889-3.413 10.291-6.178 15.702-8.738 8.49-4.036 17.365-7.296 25.736-11.563 6.895-3.507 12.519-8.567 15.855-15.616-22.127-20.616-51.798-33.246-84.429-33.246-32.581-0.026-62.2 12.553-84.309 33.101zM346.624 139.767c-2.193 3.695-5.009 7.082-8.525 10.137-6.989 6.067-15.155 9.976-23.569 13.551-7.569 3.217-15.138 6.442-22.545 10.010-3.439 1.656-6.553 4.070-8.055 8.123 0.726 0.171 1.246 0.298 1.775 0.418 6.639 1.45 13.337 2.663 19.891 4.438 4.497 1.229 8.798 3.217 11.921 6.971 2.867 3.439 2.825 6.647 0.298 10.291-0.921 1.322-1.639 2.961-1.886 4.539-0.666 4.301-1.322 8.635-1.459 12.979-0.452 15.061-0.486 30.131-1.092 45.184-0.401 9.907-1.911 19.712-5.683 28.988-5.137 12.603-13.824 20.906-27.878 22.349-3.192 0.325-6.144 0.965-8.918 2.637-1.255 0.76-2.748 1.203-4.19 1.595-13.406 3.643-25.95 0.529-37.837-5.555-13.44-6.878-21-18.637-25.335-32.709-3.686-11.989-4.65-24.371-5.248-36.822-0.563-11.793-1.075-23.586-1.988-35.362-0.256-3.32 0-7.654-5.052-8.312 0.069-6.067 1.894-11.144 7.706-13.688 4.394-1.937 8.917-3.67 13.525-4.975 4.514-1.28 9.208-1.92 14.601-2.995-1.826-2.065-3.174-4.027-4.923-5.478-5.632-4.694-12.518-7.023-19.191-9.736-9.319-3.772-18.731-7.33-26.974-13.295-5.239-3.789-9.472-8.235-12.57-13.406-20.096 22.024-32.358 51.328-32.358 83.498 0 68.429 55.466 123.904 123.904 123.904s123.904-55.466 123.904-123.904c0.009-32.111-12.202-61.363-32.248-83.379zM256-23.466c-136.44 0-247.466 111.001-247.466 247.466 0 136.44 111.027 247.466 247.466 247.466 136.465 0 247.466-111.027 247.466-247.466 0-136.465-111.001-247.466-247.466-247.466zM256 461.884c-131.157 0-237.883-106.727-237.883-237.884 0-131.183 106.727-237.884 237.883-237.884 131.183 0 237.884 106.701 237.884 237.884 0 131.158-106.701 237.884-237.884 237.884z" />
<glyph unicode="&#x61;" d="M118.102 361.165v-275.038h275.080v275.038h-275.080zM382.183 97.118h-253.090v198.050h253.090v-198.050zM382.183 306.159h-253.090v44.049h253.090v-44.049zM189.627 333.679h170.547v-10.991h-170.547v10.991zM145.605 333.679h11v-10.991h-11v10.991zM167.62 333.679h11.008v-10.991h-11.008v10.991z" />
<glyph unicode="&#x62;" d="M275.541 314.061c39.987 0 72.507-32.512 72.507-72.525 0-0.205-0.034-0.452-0.043-0.657-0.026-0.537-0.068-1.075-0.077-1.613l-0.273-10.965 10.983-0.034c26.565-0.085 48.179-21.752 48.179-48.35 0-26.479-21.572-48.171-48.086-48.29l-2.346-0.026h-196.617c-29.577 0.026-53.657 24.115-53.657 53.7 0 22.921 14.592 43.333 36.301 50.774l6.042 2.065 1.058 6.306c2.629 15.539 15.983 26.803 31.727 26.803 5.018 0 9.864-1.16 14.422-3.439l9.797-4.933 4.719 9.89c12.006 25.071 37.674 41.293 65.365 41.293zM275.541 324.787c-33.126 0-61.645-19.397-75.050-47.394-5.794 2.927-12.322 4.599-19.243 4.599-21.265 0-38.87-15.479-42.326-35.772-25.31-8.696-43.554-32.632-43.554-60.928 0-35.558 28.834-64.401 64.392-64.427h199.031c32.486 0.179 58.76 26.538 58.76 59.050 0 32.572-26.343 58.991-58.889 59.077 0.017 0.87 0.128 1.707 0.128 2.543 0 45.986-37.265 83.251-83.251 83.251z" />
<glyph unicode="&#x63;" d="M387.678 322.671h-264.072c-9.088 0-16.495-7.382-16.495-16.495v-165.043c0-9.122 7.407-16.495 16.495-16.495h264.072c9.122 0 16.503 7.373 16.503 16.495v165.043c0 9.122-7.373 16.495-16.503 16.495zM393.19 141.125c0-3.029-2.483-5.478-5.512-5.478h-264.072c-3.029 0-5.478 2.449-5.478 5.478v104.534h275.063v-104.534zM393.19 256.649h-275.063v22.041h275.063v-22.041zM393.19 289.681h-275.063v16.495c0 3.029 2.449 5.512 5.478 5.512h264.072c3.029 0 5.512-2.483 5.512-5.512v-16.495zM140.109 168.644h110.046v-11.017h-110.046v11.017zM140.109 201.642h66.031v-10.991h-66.031v10.991zM338.005 157.627h22.349c5.974 0 10.837 4.779 10.837 10.683v0.674c0 5.88-4.864 10.683-10.837 10.683h-22.349c-5.965 0-10.837-4.805-10.837-10.683v-0.674c0-5.913 4.864-10.683 10.837-10.683z" />
<glyph unicode="&#x64;" d="M255.642 306.082c-45.577 0-82.526-36.95-82.526-82.526s36.95-82.526 82.526-82.526c45.577 0 82.526 36.95 82.526 82.526s-36.941 82.526-82.526 82.526zM255.642 152.055c-39.424 0-71.51 32.077-71.51 71.51s32.077 71.535 71.51 71.535c39.424 0 71.535-32.111 71.535-71.535s-32.103-71.51-71.535-71.51zM250.197 388.702h10.991v-66.116h-10.991v66.116zM250.197 124.536h10.991v-65.937h-10.991v65.937zM90.59 229.162h66.031v-11.016h-66.031v11.017zM354.671 229.162h66.031v-11.016h-66.031v11.017zM368.51 344.6l7.773-7.771-46.002-46.015-7.773 7.771 46.002 46.015zM142.875 103.375l-7.778 7.777 46.008 46.008 7.778-7.777-46.008-46.008zM142.876 344.596l46.008-46.009-7.772-7.771-46.008 46.008 7.772 7.772zM368.5 103.414l-45.978 46.010 7.811 7.805 45.978-46.010-7.811-7.805z" />
<glyph unicode="&#x65;" d="M350.404 260.463l-91.264 91.264h-96.674v-257.8h187.998v166.536h-0.060zM259.14 336.546l70.733-70.733h-70.733v70.733zM173.226 104.687v236.313h75.187v-85.939h91.289v-150.375h-166.477z" />
<glyph unicode="&#x66;" d="M194.833 333.142c-8.55-17.331-13.056-36.429-13.056-56.055 0-70.315 57.199-127.48 127.479-127.48 20.676 0 40.635 4.933 58.538 14.225-21.666-38.963-62.933-64.154-109.432-64.154-69.145 0-125.423 56.243-125.423 125.415 0 45.235 24.269 85.965 61.892 108.049zM224.119 356.753c-58.599-15.206-101.93-68.31-101.93-131.661 0-75.213 60.987-136.175 136.175-136.175 64.341 0 118.127 44.672 132.377 104.653-21.034-20.531-49.758-33.203-81.493-33.203-64.461 0-116.753 52.233-116.753 116.719 0.008 30.831 12.083 58.803 31.625 79.667z" />
<glyph unicode="&#x67;" d="M107.111 311.654v-220.058h297.071v220.058h-297.071zM393.19 102.613h-275.098v198.050h275.098v-198.050zM129.118 333.662h253.073v-10.991h-253.073v10.991zM151.125 355.704h209.067v-11.017h-209.066v11.017z" />
<glyph unicode="&#x68;" d="M256.469 357.111l-53.718-53.7v21.487h-42.957v-64.461l-37.828-37.829 7.603-7.586 126.899 126.882 126.899-126.882 7.586 7.586-134.486 134.502zM192.034 292.65l-21.487-21.453v42.94h21.487v-21.487zM159.804 217.464v-128.913h75.187v75.213h42.957v-75.213h75.213v128.913l-96.683 96.674-96.674-96.674zM342.4 99.311h-53.7v75.213h-64.461v-75.213h-53.701v113.698l85.93 85.939 85.93-85.939v-113.698z" />
<glyph unicode="&#x69;" d="M332.066 314.137h-150.801l-59.077-64.461v-118.152h268.553v118.153l-58.675 64.461zM185.984 303.377h141.329l48.887-53.701h-82.142c0-20.113-17.493-36.369-37.589-36.369-20.121 0-37.606 16.256-37.606 36.369h-82.091l49.212 53.701zM379.99 142.25h-247.040v96.7h76.501c5.137-20.557 24.593-36.369 47.019-36.369s41.865 15.813 46.993 36.369h76.527v-96.7z" />
<glyph unicode="&#x6a;" d="M377.848 332.945l-12.902 12.92c-20.463 20.446-53.709 20.446-74.154 0l-48.887-48.913 7.757-7.774 48.913 48.913c16.145 16.128 42.445 16.128 58.573 0l12.919-12.919c16.145-16.162 16.145-42.428 0-58.556l-69.299-69.333c-16.162-16.128-42.445-16.128-58.59 0l-7.774-7.774c10.206-10.223 23.629-15.3 37.069-15.3s26.846 5.077 37.069 15.3l69.299 69.299c20.446 20.446 20.446 53.718 0.009 74.138zM212.71 109.243c-7.816-7.834-18.227-12.151-29.295-12.151-11.050 0-21.462 4.318-29.295 12.151l-12.903 12.885c-16.128 16.162-16.128 42.428 0 58.59l69.299 69.299c16.145 16.162 42.445 16.162 58.59 0l12.902-12.919 7.774 7.774-12.885 12.919c-20.446 20.446-53.718 20.446-74.171 0l-69.299-69.299c-20.421-20.446-20.421-53.692 0-74.137l12.919-12.885c9.907-9.916 23.065-15.368 37.069-15.368 14.020 0 27.178 5.445 37.069 15.368l46.131 46.097-7.774 7.774-46.131-46.097z" />
<glyph unicode="&#x6b;" d="M123.606 317.192v-44.015h264.072v44.015h-264.072zM376.661 284.168h-242.065v22.007h242.065v-22.007zM123.606 201.642h264.072v44.015h-264.072v-44.015zM134.596 234.667h242.065v-22.042h-242.065v22.041zM123.606 130.108h264.072v44.049h-264.072v-44.049zM134.596 163.132h242.065v-22.007h-242.065v22.007z" />
<glyph unicode="&#x6c;" d="M328.764 372.19h-146.253c-8.234 0-14.891-6.673-14.891-14.907v-267.289c0-8.235 6.656-14.873 14.891-14.873h146.253c8.235 0 14.908 6.639 14.908 14.873v267.289c0 8.235-6.673 14.908-14.908 14.908zM332.655 89.993c0-2.142-1.733-3.882-3.891-3.882h-146.253c-2.142 0-3.882 1.741-3.882 3.882v51.089h154.035v-51.089zM332.655 152.064h-154.035v175.889h154.035v-175.889zM332.655 338.944h-154.035v18.338c0 2.176 1.741 3.882 3.882 3.882h146.253c2.159 0 3.891-1.715 3.891-3.882v-18.338zM239.138 119.134h32.999v-11.017h-32.999v11.017z" />
<glyph unicode="&#x6d;" d="M405.111 326.315h-298.94c-9.583 0-17.391-7.774-17.391-17.357v-170.59c0-9.608 7.808-17.382 17.391-17.382h298.94c9.608 0 17.391 7.774 17.391 17.382v170.59c0 9.583-7.774 17.357-17.391 17.357zM127.556 133.837h-21.385c-2.509 0-4.549 2.022-4.549 4.531v170.59c0 2.509 2.031 4.557 4.549 4.557h21.385v-179.678zM373.786 133.837h-233.387v179.687h233.387v-179.687zM409.659 138.368c0-2.509-2.031-4.531-4.548-4.531h-18.509v179.687h18.509c2.509 0 4.548-2.048 4.548-4.557v-170.599zM391.159 242.901h12.825v-38.511h-12.825v38.511z" />
<glyph unicode="&#x6e;" d="M256.469 351.727c-71.194 0-128.896-57.702-128.896-128.887 0-71.211 57.703-128.913 128.896-128.913s128.896 57.702 128.896 128.913c0 71.185-57.702 128.887-128.896 128.887zM256.469 104.687c-32.069 0-61.175 12.851-82.492 33.647 12.101 4.933 36.207 13.534 52.054 18.227 9.208 2.901 9.208 10.666 9.208 16.887 0 5.171-0.358 12.791-3.387 19.243-2.065 4.394-4.438 11.955-4.958 17.903-0.119 1.374-0.768 2.663-1.817 3.558-1.528 1.349-4.625 6.212-6.596 16.042-1.553 7.799-0.896 9.506-0.264 11.144 0.273 0.717 0.537 1.408 0.751 2.184 1.288 4.719-0.145 20.199-1.707 28.809-0.691 3.703 0.171 14.344 7.168 23.279 6.263 8.005 15.744 12.458 27.835 13.235h10.189c12.416-0.776 21.897-5.231 28.177-13.235 6.989-8.935 7.834-19.575 7.159-23.313-1.553-8.576-3.003-24.055-1.715-28.774 0.222-0.776 0.478-1.468 0.743-2.185 0.64-1.647 1.297-3.345-0.248-11.144-1.971-9.831-5.077-14.703-6.596-16.043-1.050-0.896-1.698-2.185-1.817-3.558-0.512-5.947-2.885-13.509-4.958-17.903-2.381-5.077-5.128-11.801-5.128-19.003 0-6.247 0-13.986 9.301-16.947 15.163-4.454 39.39-12.791 52.19-17.809-21.368-21.154-50.731-34.245-83.089-34.245zM347.307 147.387c-11.784 4.898-39.594 14.55-56.807 19.635-1.467 0.478-1.698 0.538-1.698 6.664 0 5.051 2.074 10.129 4.104 14.404 2.193 4.694 4.796 12.553 5.726 19.601 2.611 3.021 6.161 8.994 8.448 20.411 2.014 10.043 1.067 13.688-0.264 17.126-0.137 0.358-0.273 0.717-0.384 1.075-0.512 2.363 0.179 14.583 1.903 24.090 1.178 6.511-0.307 20.352-9.267 31.829-5.675 7.236-16.503 16.137-36.301 17.365h-10.855c-19.456-1.229-30.302-10.129-35.968-17.365-8.969-11.477-10.462-25.31-9.275-31.829 1.732-9.498 2.415-21.726 1.911-24.030-0.094-0.418-0.248-0.776-0.393-1.135-1.322-3.439-2.262-7.083-0.248-17.126 2.27-11.418 5.837-17.391 8.448-20.411 0.922-7.048 3.533-14.908 5.726-19.601 1.605-3.405 2.363-8.064 2.363-14.643 0-6.093-0.231-6.187-1.605-6.605-17.8-5.257-46.131-15.514-56.696-20.113-17.382 20.557-27.879 47.13-27.879 76.109 0 65.144 53 118.161 118.153 118.161s118.161-53.009 118.161-118.161c0.009-28.68-10.265-54.981-27.306-75.452z" />
<glyph unicode="&#x6f;" d="M377.284 298.018h-34.893v29.491c0 13.355-10.829 24.201-24.235 24.201h-166.375c-13.355 0-24.218-10.846-24.218-24.201v-225.528c0-4.454 3.601-8.038 8.081-8.038h241.63c4.454 0 8.081 3.584 8.081 8.038v187.964c0.009 4.454-3.618 8.072-8.072 8.072zM138.309 327.51c0 7.407 6.050 13.474 13.474 13.474h166.375c7.441 0 13.491-6.067 13.491-13.474v-29.491h-193.339v29.491zM374.622 104.67h-236.314v182.613h236.314v-182.613zM229.607 222.831c0-14.848 12.032-26.837 26.863-26.837 14.822 0 26.846 11.981 26.846 26.837 0 14.822-12.032 26.838-26.846 26.838-14.831-0.008-26.863-12.015-26.863-26.838zM272.58 222.831c0-8.875-7.228-16.111-16.103-16.111-8.892 0-16.102 7.236-16.102 16.111s7.219 16.102 16.102 16.102c8.875 0 16.103-7.227 16.103-16.102z" />
<glyph unicode="&#x70;" d="M256.469 357.111h-0.179c-0.051 0-0.094-0.034-0.154-0.034-74.001-0.145-133.939-60.211-133.939-134.263 0-74.018 59.938-134.084 133.939-134.238 0.060 0 0.103-0.026 0.154-0.026h0.171c74.137 0 134.272 60.151 134.272 134.263 0 74.171-60.126 134.298-134.263 134.298zM227.268 342.852c-10.368-10.82-19.141-27.221-25.404-47.334-11.656 3.558-22.844 8.217-33.434 13.866 15.872 16.137 36.138 27.938 58.838 33.467zM161.016 301.133c11.964-6.571 24.644-11.981 37.939-16.017-4.344-17.126-6.938-36.429-7.339-56.926h-58.538c1.186 27.614 11.469 52.923 27.938 72.943zM161.016 144.521c-16.47 20.019-26.752 45.329-27.938 72.943h58.538c0.393-20.497 2.995-39.8 7.339-56.926-13.295-4.036-25.984-9.447-37.939-16.017zM168.397 136.303c10.599 5.675 21.786 10.342 33.459 13.892 6.263-20.139 15.027-36.574 25.412-47.394-22.707 5.529-42.982 17.331-58.871 33.502zM251.094 100.027c-14.584 3.798-29.406 23.185-38.827 53.009 12.51 3.046 25.481 4.813 38.827 5.197v-58.206zM251.094 168.96c-14.353-0.392-28.314-2.304-41.762-5.589-4.019 15.838-6.511 34.065-6.912 54.084h48.674v-48.495zM251.094 228.19h-48.674c0.393 20.019 2.901 38.306 6.921 54.118 13.448-3.26 27.4-5.171 41.754-5.555v-48.563zM251.094 287.48c-13.338 0.392-26.309 2.15-38.81 5.197 9.429 29.79 24.234 49.16 38.81 52.949v-58.146zM351.889 301.167c16.486-20.019 26.777-45.329 27.973-72.977h-58.88c-0.392 20.471-2.986 39.774-7.322 56.901 13.389 4.036 26.18 9.446 38.229 16.077zM344.482 309.385c-10.683-5.674-21.965-10.402-33.75-13.961-6.272 20.199-15.096 36.694-25.514 47.514 22.878-5.462 43.298-17.331 59.264-33.553zM261.837 345.514c14.481-4.002 29.142-23.313 38.494-52.923-12.399-2.986-25.284-4.719-38.494-5.111v58.035zM261.837 276.753c14.233 0.392 28.083 2.27 41.421 5.53 4.027-15.838 6.511-34.099 6.912-54.093h-48.325v48.563zM261.837 217.464h48.325c-0.392-19.993-2.885-38.187-6.895-54.024-13.337 3.26-27.195 5.137-41.43 5.529v48.495zM261.837 100.147v58.095c13.226-0.392 26.095-2.125 38.502-5.111-9.344-29.645-24.013-48.981-38.502-52.983zM285.218 102.716c10.437 10.82 19.251 27.341 25.541 47.574 11.784-3.584 23.065-8.277 33.758-13.986-15.974-16.256-36.394-28.091-59.298-33.587zM351.914 144.521c-12.058 6.63-24.849 12.075-38.255 16.103 4.335 17.127 6.929 36.394 7.313 56.841h58.88c-1.186-27.614-11.469-52.889-27.938-72.943z" />
<glyph unicode="&#x71;" d="M354.134 254.72h-196.267v12.8h195.413v-12.8zM157.867 230.827h195.413v-12.8h-195.413v12.8zM157.867 193.28h195.413v-12.8h-195.413v12.8z" />
<glyph unicode="&#x72;" d="M248.209 303.224c0 6.075 0 11.785-0.017 17.485 0 3.166 0.077 6.34-0.025 9.506-0.069 1.869 0.657 2.526 2.509 2.483 3.055-0.102 6.144-0.17 9.199-0.017 2.219 0.119 2.774-0.768 2.757-2.841-0.086-8.072-0.034-16.154-0.026-24.226 0-0.615 0.077-1.221 0.162-2.219 1.391-0.059 2.765-0.179 4.13-0.179 18.219-0.009 36.421 0.009 54.622-0.025 12.049-0.009 19.61-7.697 19.618-19.832 0.017-12.467 0-24.952 0-37.419 0-1.212 0-2.415 0-4.096 5.598 0 10.88 0.025 16.171-0.008 5.913-0.042 10.692-2.543 14.31-7.108 2.62-3.294 3.909-7.108 3.909-11.375-0.026-34.466-0.017-68.933-0.017-103.39 0-4.19 0-4.216-4.087-4.19-6.272 0.060-5.376-0.649-5.376 5.376-0.026 33.322-0.017 66.671-0.017 100.010 0 7.808-3.379 11.204-11.221 11.204-65.869 0.008-131.72 0.008-197.572 0-7.031 0-10.599-3.567-10.599-10.573 0-33.843 0.008-67.712 0.008-101.538 0.008-4.514 0.034-4.514-4.463-4.497-0.819 0-1.63 0.103-2.449 0.026-2.040-0.222-2.629 0.7-2.611 2.663 0.060 8.704 0.008 17.382 0.025 26.078 0 26.087-0.042 52.164 0.017 78.25 0.017 11.281 7.808 18.995 19.131 19.089 4.181 0.042 8.38 0.145 12.57-0.042 2.535-0.102 3.345 0.726 3.32 3.294-0.119 12.877-0.069 25.771-0.060 38.656 0.034 11.742 7.672 19.439 19.379 19.456 17.672 0.034 35.379 0.025 53.069 0.034 0.99-0.034 2.014-0.034 3.635-0.034zM181.615 241.834c2.014 0 3.643 0 5.231 0 15.855 0 31.685 0 47.522 0 31.283 0 62.55 0.025 93.815-0.051 2.586 0 3.558 0.571 3.533 3.379-0.145 12.859-0.026 25.754-0.086 38.614-0.017 6.059-3.755 9.89-9.711 9.89-43.426 0.034-86.87 0.034-130.296 0.026-6.315 0-10.018-3.806-10.043-10.215-0.025-10.018 0.017-20.027 0.017-30.046 0.017-3.661 0.017-7.347 0.017-11.597zM125.952 97.673c-3.337 0-5.939 2.057-6.341 5.017-0.444 3.26 1.272 5.999 4.275 6.827 0.64 0.179 1.561 0.205 2.287 0.205 72.874 0.034 239.505 0.051 239.505 0.051 6.938 0 13.884-0.017 20.813-0.051 3.003-0.017 5.589-2.227 5.93-5.034 0.375-3.269-1.382-5.99-4.403-6.793-0.81-0.205-2.039-0.205-2.952-0.205l-259.115-0.017zM186.991 197.069c-0.956-1.45-1.485-2.449-2.21-3.303-6.357-7.416-14.865-10.615-24.184-12.015-1.425-0.214-4.13 0.214-4.309 0.879-0.571 2.074-0.29 4.411-0.137 6.622 0.017 0.333 1.126 0.7 1.792 0.827 1.988 0.443 4.045 0.657 6.016 1.161 8.832 2.313 15.266 7.399 18.944 15.966 0.649 1.485 2.619 3.021 4.165 3.269 1.152 0.179 3.191-1.433 3.823-2.731 5.179-10.522 13.883-15.846 25.131-17.297 9.199-1.186 18.193-0.486 26.343 4.616 4.48 2.808 7.739 6.664 9.549 11.631 0.793 2.21 1.937 3.968 4.471 3.899 2.313-0.051 3.541-1.57 4.438-3.644 2.373-5.445 6.315-9.634 11.579-12.245 13.329-6.63 26.743-6.853 39.817 0.768 4.352 2.551 7.176 6.502 9.046 11.264 0.615 1.613 2.483 3.379 4.104 3.823 2.116 0.572 3.584-1.288 4.565-3.311 4.608-9.481 12.519-14.533 22.639-16.469 3.738-0.717 5.829-4.745 3.976-8.089-0.367-0.64-1.92-1.007-2.858-0.887-10.291 1.263-19.26 5.257-26.189 13.201-0.461 0.529-0.683 1.263-1.255 2.329-9.147-12.433-21.351-16.248-35.012-16.086-13.509 0.137-25.558 4.182-34.663 15.599-8.661-11.904-20.958-15.719-34.517-15.633-13.415 0.060-25.566 4.139-35.064 15.855zM255.813 353.988c-0.162-2.816-0.256-4.906-0.358-6.664-1.834 0.315-4.207 1.408-5.035 0.691-1.246-1.058-1.382-3.387-1.988-5.111-8.303 5.274-9.131 20.13-2.073 26.471 1.544-2.603 3.081-5.231 4.633-7.851 0.367 0.12 0.734 0.222 1.118 0.341 2.927 6.041 2.117 12.382 0.93 18.765 14.029-7.817 20.677-26.001 8.379-38.929 0.086 4.95-1.382 8.857-5.607 12.288zM221.235 268.331c-0.751-1.314-1.093-2.236-1.673-2.936-6.332-7.577-14.848-10.948-24.278-12.433-1.57-0.256-3.874-1.203-4.429 1.681-0.922 4.889-0.239 6.486 3.226 6.963 8.84 1.229 16.171 4.923 21.009 12.706 0.87 1.382 1.238 3.131 2.253 4.327 1.075 1.305 2.629 2.885 4.071 3.004 1.246 0.102 3.141-1.425 3.865-2.714 9.617-17.416 34.679-23.663 51.448-12.714 4.429 2.885 7.731 6.656 9.558 11.639 0.793 2.193 1.937 3.968 4.471 3.909 2.287-0.051 3.481-1.596 4.446-3.627 4.557-9.575 12.689-14.302 22.741-16.281 4.207-0.853 6.127-3.994 4.233-7.749-0.435-0.853-2.637-1.314-3.917-1.135-8.764 1.28-16.768 4.386-23.305 10.649-1.314 1.263-2.731 2.415-4.403 3.865-8.286-11.349-20.548-15.146-34.116-15.087-13.457 0.069-25.549 4.198-35.2 15.931z" />
<glyph unicode="&#x73;" d="M254.976 357.922c-74.436 0-134.775-60.339-134.775-134.776s60.339-134.776 134.775-134.776 134.784 60.339 134.784 134.775-60.339 134.775-134.784 134.775zM170.684 132.377c0.785 1.604 1.698 3.158 2.774 4.634 4.787 6.519 11.375 10.777 18.585 14.029 8.218 3.704 16.631 6.963 24.892 10.565 2.893 1.263 5.649 2.875 8.354 4.505 8.013 4.847 11.947 11.947 11.512 21.385-0.042 0.93-0.008 1.877-0.008 2.927-11.699 1.767-23.56 2.44-34.287 8.243 3.763 7.108 4.352 14.626 4.762 22.127 0.76 13.773 1.032 27.571 2.065 41.318 0.726 9.643 2.841 19.098 7.227 27.87 6.255 12.502 16.504 19.687 30.046 22.511 6.767 1.416 13.619 2.321 19.96-1.032 3.925-2.074 7.723-3.2 12.194-3.516 9.907-0.7 15.932-6.853 19.61-15.693 3.303-7.936 4.728-16.307 5.086-24.772 0.606-14.25 0.674-28.527 1.058-42.794 0.197-7.441 0.384-14.907 2.841-22.050 0.435-1.255 1.033-2.449 1.596-3.781-3.806-2.697-8.141-4.010-12.553-4.856-6.904-1.331-13.875-2.355-20.839-3.345-1.604-0.222-2.005-0.734-1.809-2.227 0.197-1.485 0.341-3.021 0.248-4.505-0.426-6.827 2.969-11.887 8.132-15.479 4.889-3.413 10.291-6.178 15.702-8.738 8.49-4.036 17.365-7.296 25.736-11.563 6.895-3.507 12.519-8.567 15.855-15.616-22.127-20.616-51.798-33.246-84.429-33.246-32.581-0.026-62.2 12.553-84.309 33.101zM346.624 139.767c-2.193 3.695-5.009 7.082-8.525 10.137-6.989 6.067-15.155 9.976-23.569 13.551-7.569 3.217-15.138 6.442-22.545 10.010-3.439 1.656-6.553 4.070-8.055 8.123 0.726 0.171 1.246 0.298 1.775 0.418 6.639 1.45 13.337 2.663 19.891 4.438 4.497 1.229 8.798 3.217 11.921 6.971 2.867 3.439 2.825 6.647 0.298 10.291-0.921 1.322-1.639 2.961-1.886 4.539-0.666 4.301-1.322 8.635-1.459 12.979-0.452 15.061-0.486 30.131-1.092 45.184-0.401 9.907-1.911 19.712-5.683 28.988-5.137 12.603-13.824 20.906-27.878 22.349-3.192 0.325-6.144 0.965-8.918 2.637-1.255 0.76-2.748 1.203-4.19 1.595-13.406 3.643-25.95 0.529-37.837-5.555-13.44-6.878-21-18.637-25.335-32.709-3.686-11.989-4.65-24.371-5.248-36.822-0.563-11.793-1.075-23.586-1.988-35.362-0.256-3.32 0-7.654-5.052-8.312 0.069-6.067 1.894-11.144 7.706-13.688 4.394-1.937 8.917-3.67 13.525-4.975 4.514-1.28 9.208-1.92 14.601-2.995-1.826-2.065-3.174-4.027-4.923-5.478-5.632-4.694-12.518-7.023-19.191-9.736-9.319-3.772-18.731-7.33-26.974-13.295-5.239-3.789-9.472-8.235-12.57-13.406-20.096 22.024-32.358 51.328-32.358 83.498 0 68.429 55.466 123.904 123.904 123.904s123.904-55.466 123.904-123.904c0.009-32.111-12.202-61.363-32.248-83.379z" />
</font>
</defs>
</svg>
